Playing in the car

CategoryAmateur
Download
You need to Login or Signup first.
DescriptionTwo guys are playing in the car

      Format : MPEG-4
      Format profile : Base Media
      Codec ID : isom
      File size : 84.7 MiB
      Duration : 24mn 35s
      Overall bit rate mode : Variable
      Overall bit rate : 482 Kbps
      Writing application : Lavf56.25.101
  Video #1
      ID : 1
      Format : AVC
      Format/Info : Advanced Video Codec
      Format profile : High@L3.0
      Format settings, CABAC : Yes
      Format settings, ReFrames : 4 frames
      Codec ID : avc1
      Codec ID/Info : Advanced Video Coding
      Duration : 24mn 35s
      Bit rate : 473 Kbps
      Width : 544 pixels
      Height : 408 pixels
      Display aspect ratio : 4:3
      Frame rate mode : Constant
      Frame rate : 25.000 fps
      Color space : YUV
      Chroma subsampling : 4:2:0
      Bit depth : 8 bits
      Scan type : Progressive
      Bits/(Pixel*Frame) : 0.085
      Stream size : 83.2 MiB (98%)
      Writing library : x264 core 142
      Encoding settings : cabac=1 / ref=3 / deblock=1:0:0 / analyse=0x3:0x113 / me=hex / subme=7 / psy=1 / psy_rd=1.00:0.00 / mixed_ref=1 / me_range=16 / chroma_me=1 / trellis=1 / 8x8dct=1 / cqm=0 / deadzone=21,11 / fast_pskip=1 / chroma_qp_offset=-2 / threads=4 / lookahead_threads=1 / sliced_threads=0 / nr=0 / decimate=1 / interlaced=0 / bluray_compat=0 / constrained_intra=0 / bframes=3 / b_pyramid=2 / b_adapt=1 / b_bias=0 / direct=1 / weightb=1 / open_gop=0 / weightp=2 / keyint=25 / keyint_min=2 / scenecut=40 / intra_refresh=0 / rc_lookahead=25 / rc=2pass / mbtree=1 / bitrate=473 / ratetol=1.0 / qcomp=0.60 / qpmin=0 / qpmax=69 / qpstep=4 / cplxblur=20.0 / qblur=0.5 / ip_ratio=1.40 / aq=1:1.00
  Audio #2
      ID : 2
      Format : AAC
      Format/Info : Advanced Audio Codec
      Format profile : LC
      Codec ID : 40
      Duration : 24mn 35s
      Duration_LastFrame : -12ms
      Bit rate mode : Variable
      Bit rate : 3 100 bps
      Maximum bit rate : 192 Kbps
      Channel(s) : 2 channels
      Channel positions : Front: L R
      Sampling rate : 44.1 KHz
      Compression mode : Lossy
      Delay relative to video : 80ms
      Stream size : 558 KiB (1%)
Added2015-11-27 17:58:48
Size84.74 MB (88,857,718 bytes)
Views4
Num files1 files
Pictures