♺ RawTwinkX - Sweet Sperm - Remastered from DVD

You need to Login or Signup first.
DescriptionOriginal upload: 2014-10-23 |
"Virgin boys having their first experience. Massive cocks sliding in sweet holes, stretching them beyond measure. Straight lads fucking each other bareback! Looking for a fuck anywhere with anyone, these guys drop their trousers and give the fucking of a lifetime over and over in this complete fuck fest of a film!" (from the liner notes)
Title: Sweet Sperm
Released: 2009
Duration: 2 hours
Country:  Czech Republic
Studio :  Raw TwinkX
Cast:  Franky Moreno, Pit Strew, Kerry Flith
Director:  Paolo Amaroy
Personal Note: One might think, (well, I did, anyway...!) that with a title of "Sweet Sperm" that "sweet" would refer to the sweet TASTE of sperm... and thus, that this movie would feature twinks lapping up cum, guzzling cum, at every opportunity. Well... this is NOT the case, in this movie. This video features fairly cute (clearly amatuer) twinks paired up in various situations and settings, enjoying oral sex a LOT, prior to getting down to the bareback fucking. And the cum shots are pretty much set up as each boy jacking himself to completion, with the other guy looking on.

Not exactly MY personal (OTB-STYLE) cup-of-tea fantasy, but enjoyable and watchable, just the same.

This video required NO Color Correction, as each scene was properly color balanced, with proper hue, and saturation. There WAS some of the defect of being improperly lit and photgraphed with the bright areas of the picture TOO bright, to the point of "solarizing". I guess it was shot this way in order for the darker portions of the picture (i.e. the boys "private parts") to be satifactoraly lit. One might call this "uneven lighting". Once video is "solarized", eh, sorry, there is no recoverey, no "fix" that anyone can apply; it's permanently damaged.

Still, most people won't even notice this, I think. Having been a video engineer for 3 decades, I DO notice these things, as I seek to color-correct these videos, to share the very best quality video possible, with you. I DID de-interlace and Sharpen the DVD files, moderately, in this conversion. Enjoy!

And, as always... if you appreciate the effort I put into creating this High Quality Xvid movie from DVD... and if you can afford to, any bonus points you can award me will be greatly appreciated, and used to trade in for upload credit, to help maintain my struggling download / upload ratio!  Thank you very much!!

Freshly ripped directly from the DVD files, using the Xvid codec in 2-pass mode, to detect motion, then utilize Variable Bit Rates for the most efficient Video Compression, achieving a uniform look of high quality, plus MP3 audio, resulting in a reasonable file size. This video has a Gspot Qf (Quality Factor) of .218 for near-DVD quality.
Age: Barely Legal/Twinks/Young Meat,  Amateurs/First Timers,  Body Types: Gymnasts/Ripped/Swimmers,  Body Types: Lean/Slim/Wiry,  Body/Chest Hair: None (Hairless/Shaved/Smooth),  Cast's Looks: Adorable/Cute,  Cock Sizes: Average/Above Average,  Cock Sizes: Big and Thick,  Condomless Sex: Barebacking,  Cumshots: Oral/Swallowing,  Facial Hair: None (Clean Shaven),  Foreskin Play/Uncut Cocks,  Men in/of the Czech Republic,  Straight/Closeted Men

Bareback,  Foreign/International Cast,  Twinks
Multimedia Analysis of:  [RawTwinkx] Sweet Sperm.avi
Complete name : [RawTwinkx] Sweet Sperm.avi
Format : AVI
Format/Info : Audio Video Interleave
File size : 1.98 GiB
Duration : 1h 58mn
Overall bit rate : 2 399 Kbps
Writing application : VirtualDubMod (build 2542/release)
Writing library : VirtualDubMod build 2542/release

Video  ID : 0
Format : MPEG-4 Visual
Format profile : Advanced Simple@L5
Format settings, BVOP : Yes
Format settings, QPel : No
Format settings, GMC : No warppoints
Format settings, Matrix : Default (MPEG)
Muxing mode : Packed bitstream
Codec ID : XVID
Codec ID/Hint : XviD
Duration : 1h 58mn
Bit rate : 2 259 Kbps
Width : 720 pixels
Height : 480 pixels
Display aspect ratio : 16:9
Frame rate : 29.970 fps
Standard : NTSC
Resolution : 8 bits
Colorimetry : 4:2:0
Scan type : Progressive
Bits/(Pixel*Frame) : 0.218
Stream size : 1.87 GiB (94%)
Writing library : XviD 1.2.1 (UTC 2008-12-04)

Audio  ID : 1
Format : MPEG Audio
Format version : Version 1
Format profile : Layer 3
Format_Settings_Mode : Joint stereo / MS Stereo
Codec ID : 55
Codec ID/Hint : MP3
Duration : 1h 58mn
Bit rate mode : Constant
Bit rate : 128 Kbps
Channel(s) : 2 channels
Sampling rate : 48.0 KHz
Stream size : 108 MiB (5%)
Alignment : Aligned on interleaves
Interleave, duration : 33 ms (1.00 video frame)
Interleave, preload duration : 504 ms

~bareback ~twinks ~hq
Added2015-10-24 12:10:07
Size1.98 GB (2,126,669,824 bytes)
Num files1 files