♺ [Chubold JPN]Vcd - 1069 (no mask)

CategoryChubbies
Download
You need to Login or Signup first.
DescriptionOriginal upload: 2012-10-27 |
General
Complete name                            : C:TorrentSamson - [Chubold JPN]Vcd - 1069 (no mask).mpeg
Format                                  : MPEG-PS
File size                                : 237 MiB
Duration                                : 24mn 34s
Overall bit rate                        : 1 351 Kbps

Video
ID                                      : 224 (0xE0)
Format                                  : MPEG Video
Format version                          : Version 1
Format settings, BVOP                    : No
Format settings, Matrix                  : Default
Duration                                : 24mn 34s
Bit rate                                : 1 132 Kbps
Maximum bit rate                        : 1 152 Kbps
Width                                    : 352 pixels
Height                                  : 240 pixels
Display aspect ratio                    : 4:3
Frame rate                              : 29.970 fps
Standard                                : NTSC
Color space                              : YUV
Bit depth                                : 8 bits
Scan type                                : Progressive
Compression mode                        : Lossy
Bits/(Pixel*Frame)                      : 0.447
Stream size                              : 199 MiB (84%)

Audio
ID                                      : 192 (0xC0)
Format                                  : MPEG Audio
Format version                          : Version 1
Format profile                          : Layer 2
Duration                                : 24mn 34s
Bit rate mode                            : Constant
Bit rate                                : 192 Kbps
Channel(s)                              : 2 channels
Sampling rate                            : 44.1 KHz
Compression mode                        : Lossy
Stream size                              : 33.8 MiB (14%)


Added2015-07-07 15:50:06
Size237.43 MB (248,967,168 bytes)
Views311
Num files1 files
Pictures