Taken down by DMCA request

Next Door Twink - Billy, Dylan, & Jacob

CategoryTwinks
Download
You need to Login or Signup first.
DescriptionIt's three very hot Twink boys in this sexy, rollicking good time. When Jacob Dixon, Billy Munday, and Dylan Marks get together for some steamy fun, it's chemistry from the very start.

Jacob is one cute guy and Billy can't keep his hands or tongue away. Watch them French kiss as they explore each other's bodies passionately. Dylan Marks is joining them, coming in very hot as he enjoys Billy's plump ass. Soon the three are sharing a boner-inducing kiss together, getting ready to unleash their throbbing beasts. See Billy and Dylan share Jacob's perfect cock as they take turns sucking and slurping. Then it's a good hard ass pounding when Jacob slides that meaty dick into Billy's tight hole. And Dylan wants a piece too. He's taking Jacob's dong deep, enjoying every inch. It's pure intensity in this super hot-three way encounter.

******

Format                                  : MPEG-4
Format profile                          : Base Media
Codec ID                                : isom
File size                                : 588 MiB
Duration                                : 41mn 48s
Overall bit rate mode                    : Variable
Overall bit rate                        : 1 967 Kbps
Movie name                              : NDT-Billy-Dylan-Jacob
Encoded date                            : UTC 1970-01-01 00:00:00
Tagged date                              : UTC 1970-01-01 00:00:00
Writing application                      : Lavf52.93.0

Video
ID                                      : 1
Format                                  : AVC
Format/Info                              : Advanced Video Codec
Format profile                          : High@L3.1
Format settings, CABAC                  : Yes
Format settings, ReFrames                : 4 frames
Codec ID                                : avc1
Codec ID/Info                            : Advanced Video Coding
Duration                                : 41mn 48s
Bit rate                                : 1 800 Kbps
Width                                    : 960 pixels
Height                                  : 544 pixels
Display aspect ratio                    : 16:9
Frame rate mode                          : Constant
Frame rate                              : 29.970 fps
Color space                              : YUV
Chroma subsampling                      : 4:2:0
Bit depth                                : 8 bits
Scan type                                : Progressive
Bits/(Pixel*Frame)                      : 0.115
Stream size                              : 541 MiB (92%)
Writing library                          : x264 core 107
Encoding settings                        : cabac=1 / ref=3 / deblock=1:0:0 / analyse=0x3:0x113 / me=umh / subme=6 / psy=1 / psy_rd=1.00:0.00 / mixed_ref=1 / me_range=16 / chroma_me=1 / trellis=0 / 8x8dct=1 / cqm=0 / deadzone=21,11 / fast_pskip=1 / chroma_qp_offset=-2 / threads=1 / sliced_threads=0 / nr=0 / decimate=1 / interlaced=0 / constrained_intra=0 / bframes=2 / b_pyramid=2 / b_adapt=2 / b_bias=0 / direct=2 / weightb=1 / open_gop=0 / weightp=0 / keyint=30 / keyint_min=16 / scenecut=0 / intra_refresh=0 / rc_lookahead=30 / rc=abr / mbtree=1 / bitrate=1800 / ratetol=1.0 / qcomp=0.60 / qpmin=1 / qpmax=31 / qpstep=4 / ip_ratio=1.41 / aq=1:1.00
Encoded date                            : UTC 1970-01-01 00:00:00
Tagged date                              : UTC 1970-01-01 00:00:00

Audio
ID                                      : 2
Format                                  : AAC
Format/Info                              : Advanced Audio Codec
Format profile                          : LC
Codec ID                                : 40
Duration                                : 41mn 48s
Bit rate mode                            : Variable
Bit rate                                : 151 Kbps
Channel(s)                              : 2 channels
Channel positions                        : Front: L R
Sampling rate                            : 44.1 KHz
Compression mode                        : Lossy
Stream size                              : 45.3 MiB (8%)
Encoded date                            : UTC 1970-01-01 00:00:00
Tagged date                              : UTC 1970-01-01 00:00:00


Added2014-09-19 06:39:34
Size588.41 MB (616,993,574 bytes)
Views2
Num files1 files
Pictures