[get film - evo] Sex in a Burger Shop avi - CinConald's

Asian
You need to Login or Signup first.
[get film - evo] Sex in a Burger Shop.avi


Format                          : AVI
Format/Info                      : Audio Video Interleave
File size                        : 1.74 GiB
Duration                        : 1h 35mn
Overall bit rate                : 2 593 Kbps

Video
ID                              : 0
Format                          : MPEG-4 Visual
Format settings, BVOP            : 1
Format settings, QPel            : No
Format settings, GMC            : No warppoints
Format settings, Matrix          : Default (H.263)
Muxing mode                      : Packed bitstream
Codec ID                        : DX50
Codec ID/Hint                    : DivX 5
Duration                        : 1h 35mn
Bit rate                        : 2 525 Kbps
Width                            : 720 pixels
Height                          : 480 pixels
Display aspect ratio            : 4.615
Frame rate                      : 29.970 fps
Standard                        : NTSC
Color space                      : YUV
Chroma subsampling              : 4:2:0
Bit depth                        : 8 bits
Scan type                        : Progressive
Compression mode                : Lossy
Bits/(Pixel*Frame)              : 0.244
Stream size                      : 1.69 GiB (97%)
Writing library                  : DivX 6.8.5 (UTC 2009-08-20)

Audio
ID                              : 1
Format                          : MPEG Audio
Format version                  : Version 2
Format profile                  : Layer 3
Mode                            : Joint stereo
Mode extension                  : Intensity Stereo + MS Stereo
Codec ID                        : 55
Codec ID/Hint                    : MP3
Duration                        : 1h 35mn
Bit rate mode                    : Constant
Bit rate                        : 56.0 Kbps
Channel(s)                      : 2 channels
Sampling rate                    : 24.0 KHz
Compression mode                : Lossy
Stream size                      : 38.4 MiB (2%)
Alignment                        : Split accross interleaves
Interleave, duration            : 33 ms (1.00 video frame)
Interleave, preload duration    : 3 ms

2011-06-01 13:30:45
1.74 GB (1,864,112,958 bytes)
1439
1 files