Taken down by DMCA request

♺ Jasper Robinson & Jr Adams - Color Corrected - 720p

CategoryTwinks
Download
You need to Login or Signup first.
DescriptionOriginal upload: 2013-10-06 |
It's impossible for JR and Jasper to keep their hands to themselves when they're around each other, and that's no surprise to any of us! These gorgeous boys need some dick, and the mutual sucking 69 is enough to get them on the edge of cumming. But JR needs more than some oral and soon his ass is being filled. Two delicious cum shooting facials are the perfect ending.

Studio: B C
Title: TAKING A HARD TWINK DICK
Released: OCTOBER 4, 2013
Duration: 16 minutes
Resolution: 1280 x 720p

Models: Jasper Robinson, JR Adams

Scene Tags: 69, American, Anal, Blond Hair, Brown Hair, Cum Eating, Cum Jerking Off, Cut, Deep Throat, DoggyStyle, Fucking, Kissing, Large Dick, Masturbation, Missionary, On The Sofa, Passionate Fuck, Riding, Shaved, Short Hair, Trimmed, Twinks

-------------------------------------Personal / Technical Notes------------------------
What a crazy surprise to download this today, and discover models with greenish skin, in an otherwise flawless production!!!

Handsome twinks (albeit condom sex ;() and beautiful High-Resolution (1280 x 720p) photography and flawless production qualities... so I figured, what the heck, I'll have a go at color-correcting it.

Results... White balance achieved with Red at 98% and Blue at 104%. Crushed blacks and clipped whites resolved a little bit by Contrast setting of 96.3%. Chroma reduced to 86% and Hue cranked a whopping 14 degrees away from Green!  I think the end result was quite stunning.

See for yourself!!!

Enjoy!
Pawpcorn
-----------------------------------Detailed Technical Specs-----------------------------
[General] Complete name : Jasper Robinson & Jr Adams - Color Corrected.avi
Format : AVI
Format/Info : Audio Video Interleave
File size : 686 MiB
Duration : 16mn 6s
Overall bit rate : 5 951 Kbps
Movie name : BC-Jasper-Jr.mp4
Writing application : XviD4PSP 6.0 / 53.6.0
Writing library : VirtualDub build 32839/release

[Video] ID : 0
Format : MPEG-4 Visual
Format profile : Advanced Simple@L5
Format settings, BVOP : 2
Format settings, QPel : No
Format settings, GMC : No warppoints
Format settings, Matrix : Default (MPEG)
Muxing mode : Packed bitstream
Codec ID : XVID
Codec ID/Hint : XviD
Duration : 16mn 6s
Bit rate : 5 811 Kbps
Width : 1 280 pixels
Height : 720 pixels
Display aspect ratio : 16:9
Frame rate : 29.970 fps
Color space : YUV
Chroma subsampling : 4:2:0
Bit depth : 8 bits
Scan type : Progressive
Compression mode : Lossy
Bits/(Pixel*Frame) : 0.210
Stream size : 670 MiB (98%)
Writing library : XviD 64

[Audio] ID : 1
Format : MPEG Audio
Format version : Version 1
Format profile : Layer 3
Mode : Joint stereo
Mode extension : MS Stereo
Codec ID : 55
Codec ID/Hint : MP3
Duration : 16mn 6s
Bit rate mode : Constant
Bit rate : 128 Kbps
Channel(s) : 2 channels
Sampling rate : 44.1 KHz
Compression mode : Lossy
Stream size : 14.7 MiB (2%)
Alignment : Split accross interleaves
Interleave, duration : 33 ms (1.00 video frame)
Interleave, preload duration : 500 ms


Added2016-04-18 11:19:06
Size704.44 MB (738,660,305 bytes)
Views4
Num files49 files
Pictures