Jake Jennings and Tyler Rush - Boost Of Confidence

CategoryDaddies / Sons
Download
You need to Login or Signup first.
DescriptionHot fuck between teacher and student

Video
Format                      : AVC
Format/Info                : Advanced Video Codec
Format profile              : Baseline@L3.1
Format settings, CABAC      : No
Format settings, ReFrames  : 3 frames
Codec ID                    : 7
Duration                    : 18mn 46s
Bit rate                    : 2 048 Kbps
Width                      : 1 280 pixels
Height                      : 688 pixels
Display aspect ratio        : 1.85:1
Frame rate mode            : Constant
Frame rate                  : 29.970 (29970/1000) fps
Color space                : YUV
Chroma subsampling          : 4:2:0
Bit depth                  : 8 bits
Scan type                  : Progressive
Bits/(Pixel*Frame)          : 0.078
Stream size                : 276 MiB (97%)
Writing library            : x264 core 136
Encoding settings          : cabac=0 / ref=3 / deblock=1:0:0 / analyse=0x1:0x111 / me=hex / subme=7 / psy=1 / psy_rd=1.00:0.00 / mixed_ref=1 / me_range=16 / chroma_me=1 / trellis=1 / 8x8dct=0 / cqm=0 / deadzone=21,11 / fast_pskip=1 / chroma_qp_offset=-2 / threads=36 / lookahead_threads=5 / sliced_threads=0 / nr=0 / decimate=1 / interlaced=0 / bluray_compat=0 / constrained_intra=0 / bframes=0 / weightp=0 / keyint=250 / keyint_min=25 / scenecut=40 / intra_refresh=0 / rc_lookahead=40 / rc=2pass / mbtree=1 / bitrate=2048 / ratetol=1.0 / qcomp=0.60 / qpmin=0 / qpmax=69 / qpstep=4 / cplxblur=20.0 / qblur=0.5 / ip_ratio=1.40 / aq=1:1.00

Audio
Format                      : AAC
Format/Info                : Advanced Audio Codec
Format profile              : LC
Codec ID                    : 10
Duration                    : 18mn 46s
Bit rate                    : 56.7 Kbps
Channel(s)                  : 2 channels
Channel positions          : Front: L R
Sampling rate              : 44.1 KHz
Frame rate                  : 43.066 fps (1024 spf)
Compression mode            : Lossy
Stream size                : 7.61 MiB (3%)


Added2016-08-27 18:27:02
Size284.42 MB (298,241,031 bytes)
Views267
Num files1 files
Pictures