Gougai Aokan Mania

CategoryAsian
Download
You need to Login or Signup first.
DescriptionGeneral
Complete name                  : F:1080新建文件夹 (2)新建文件夹Gougai_Aokan_Mania.mpg
Format                        : MPEG-PS
File size                      : 1 004 MiB
Duration                      : 1 h 40 min
Overall bit rate              : 1 394 kb/s
Writing library                : encoded by TMPGEnc (ver. 2.59.47.155)

Video
ID                            : 224 (0xE0)
Format                        : MPEG Video
Format version                : Version 1
Format settings, BVOP          : Yes
Format settings, Matrix        : Custom
Format settings, GOP          : Variable
Duration                      : 1 h 40 min
Bit rate                      : 1 150 kb/s
Width                          : 352 pixels
Height                        : 240 pixels
Display aspect ratio          : 4:3
Frame rate                    : 29.970 (30000/1001) FPS
Standard                      : NTSC
Color space                    : YUV
Chroma subsampling            : 4:2:0
Bit depth                      : 8 bits
Scan type                      : Progressive
Compression mode              : Lossy
Bits/(Pixel*Frame)            : 0.454
Time code of first frame      : 00:00:00:00
Time code source              : Group of pictures header
GOP, Open/Closed              : Open
GOP, Open/Closed of first fram : Closed
Stream size                    : 823 MiB (82%)
Writing library                : TMPGEnc 2.59.47.155

Audio
ID                            : 192 (0xC0)
Format                        : MPEG Audio
Format version                : Version 1
Format profile                : Layer 2
Duration                      : 1 h 40 min
Bit rate mode                  : Constant
Bit rate                      : 224 kb/s
Channel(s)                    : 2 channels
Sampling rate                  : 44.1 kHz
Compression mode              : Lossy
Stream size                    : 161 MiB (16%)

Added2016-07-31 13:54:09
Size0.98 GB (1,052,639,532 bytes)
Views241
Num files1 files
Pictures