LoadXXX - After School Antics 2 aspect corrected xvid

CategoryYoungblood
Download
You need to Login or Signup first.
DescriptionAspect ratio corrected from copy already on here

Who wants to do homework when there's other fun stuff to do - like sucking your mate's teen boner and getting your tight arse rammed with dick. The naughty schoolboys in After School Antics 2 don't need to play truant to have some gay fun! Charlie and Skye show just what they didn't learn in class today as they kiss passionately before taking off their shirts to show their hairless white bodies. These two are quite passionate and Sky is soon reaching for Charlie's dick - with his mouth. The lads go top to tail for a mutual tongue lashing session, but it's the young Charlie who is the dominant top and he plows Sky's tight butt until they both shoot a wad of spunk. Josh and Luke don't reach for the Xbox when they get home after school . They go for a better joystick - each other's hard cocks. Cavorting on the bed, they tweak nipples until it's Luke who is the first to taste cock. He tugs and sucks Josh's dick before the two slip into a 69. Luke offers up his willing bottom and Josh licks and fingers his tight blow hole before pushing his teen dick in deep to fuck the bejesus out of him. Scott and Kyle become unlikely friends after Scott is roughed up by some gay bashers. The lads take their minds off the homophobic incident with the best medicine - boy on boy fucking! Shaun and Aaron are trying to concentrate on their studies, but these study-buddies are like most teenage boys - horny as hell. With a knowing look and a definite bulge in their trousers, the two schoolboys cast their books aside and concentrate on each other's cocks. Shafts are licked and sucked until Aaron becomes the submissive bottom and takes Shaun's thick dick with ease. His tight ass is stretched and battered by the energetic fucking and it's not long before both boys can hold back any longer and shoot a pent-up load onto their own bodies. Amazing teen action from the schoolboys who they just wait for school to be out before cocks can go in!


Format                                  : AVI
Format/Info                              : Audio Video Interleave
Format profile                          : OpenDML
File size                                : 1.50 GiB
Duration                                : 1h 43mn
Overall bit rate                        : 2 073 Kbps
Writing application                      : Lavf54.59.106

Video
ID                                      : 0
Format                                  : xvid
Codec ID                                : xvid
Duration                                : 1h 43mn
Bit rate                                : 1 994 Kbps
Width                                    : 720 pixels
Height                                  : 404 pixels
Display aspect ratio                    : 16:9
Frame rate                              : 29.970 fps
Bits/(Pixel*Frame)                      : 0.229
Stream size                              : 1.44 GiB (96%)

Audio
ID                                      : 1
Format                                  : MPEG Audio
Format version                          : Version 1
Format profile                          : Layer 3
Mode                                    : Joint stereo
Mode extension                          : MS Stereo
Codec ID                                : 55
Codec ID/Hint                            : MP3
Duration                                : 1h 43mn
Bit rate mode                            : Constant
Bit rate                                : 64.0 Kbps
Channel(s)                              : 2 channels
Sampling rate                            : 44.1 KHz
Compression mode                        : Lossy
Stream size                              : 47.5 MiB (3%)
Alignment                                : Aligned on interleaves
Interleave, duration                    : 26 ms (0.78 video frame)
Interleave, preload duration            : 26 ms


Added2014-08-24 19:01:00
Size1.50 GB (1,612,153,747 bytes)
Views9
Num files5 files
Pictures