Taken down by DMCA request

Sketchy Sex - Closeted Big Dick (bareback, 720p)

CategoryBareback
Download
You need to Login or Signup first.
DescriptionWe had been fucking each others brains out all night. It was sometime in the early morning when we shot this vid. Eli was on a big dick cum hungry binge. Some closet case married dude with a ten inch cock posted on craigslist and Eli invited him over. This guy had beautiful big dick and Eli couldnÂ’t get enough of it - he took so many loads dude!

***************

Format                                  : MPEG-4
Format profile                          : Base Media
Codec ID                                : isom
File size                                : 172 MiB
Duration                                : 16mn 16s
Overall bit rate                        : 1 479 Kbps
Writing application                      : Lavf55.13.102

Video
ID                                      : 1
Format                                  : AVC
Format/Info                              : Advanced Video Codec
Format profile                          : High@L3.1
Format settings, CABAC                  : Yes
Format settings, ReFrames                : 4 frames
Codec ID                                : avc1
Codec ID/Info                            : Advanced Video Coding
Duration                                : 16mn 15s
Bit rate                                : 1 404 Kbps
Width                                    : 1 280 pixels
Height                                  : 720 pixels
Display aspect ratio                    : 16:9
Frame rate mode                          : Constant
Frame rate                              : 25.000 fps
Color space                              : YUV
Chroma subsampling                      : 4:2:0
Bit depth                                : 8 bits
Scan type                                : Progressive
Bits/(Pixel*Frame)                      : 0.061
Stream size                              : 160 MiB (93%)
Writing library                          : x264 core 125
Encoding settings                        : cabac=1 / ref=3 / deblock=1:0:0 / analyse=0x3:0x113 / me=hex / subme=7 / psy=1 / psy_rd=1.00:0.00 / mixed_ref=1 / me_range=16 / chroma_me=1 / trellis=1 / 8x8dct=1 / cqm=0 / deadzone=21,11 / fast_pskip=1 / chroma_qp_offset=-2 / threads=1 / lookahead_threads=1 / sliced_threads=0 / nr=0 / decimate=1 / interlaced=0 / bluray_compat=0 / constrained_intra=0 / bframes=3 / b_pyramid=2 / b_adapt=1 / b_bias=0 / direct=1 / weightb=1 / open_gop=0 / weightp=2 / keyint=250 / keyint_min=25 / scenecut=40 / intra_refresh=0 / rc_lookahead=40 / rc=abr / mbtree=1 / bitrate=1404 / ratetol=1.0 / qcomp=0.60 / qpmin=0 / qpmax=69 / qpstep=4 / ip_ratio=1.41 / aq=1:1.00

Audio
ID                                      : 2
Format                                  : AAC
Format/Info                              : Advanced Audio Codec
Format profile                          : LC
Codec ID                                : 40
Duration                                : 16mn 16s
Bit rate mode                            : Constant
Bit rate                                : 93.8 Kbps
Channel(s)                              : 2 channels
Channel positions                        : Front: L R
Sampling rate                            : 48.0 KHz
Compression mode                        : Lossy
Stream size                              : 10.9 MiB (6%)


Added2014-09-19 03:48:13
Size172.05 MB (180,405,005 bytes)
Views0
Num files1 files
Pictures