Taken down by DMCA request

TM - Eddy CeeTee & Nick Capra

CategoryHunks
Download
You need to Login or Signup first.
DescriptionGeneral
Complete name              : TM - Eddy CeeTee & Nick Capra.mp4
Format                      : MPEG-4
Format profile              : Base Media / Version 2
Codec ID                    : mp42 (ndxc/avc1/mp42/isom)
File size                  : 650 MiB
Duration                    : 36mn 40s
Overall bit rate mode      : Variable
Overall bit rate            : 2 477 Kbps
Encoded date                : UTC 2015-01-15 07:47:53
Tagged date                : UTC 2015-01-15 11:20:17

Video
ID                          : 1
Format                      : AVC
Format/Info                : Advanced Video Codec
Format profile              : Main@L3.1
Format settings, CABAC      : Yes
Format settings, ReFrames  : 2 frames
Codec ID                    : avc1
Codec ID/Info              : Advanced Video Coding
Duration                    : 36mn 40s
Bit rate                    : 2 375 Kbps
Maximum bit rate            : 5 974 Kbps
Width                      : 1 280 pixels
Height                      : 720 pixels
Display aspect ratio        : 16:9
Frame rate mode            : Constant
Frame rate                  : 30.000 fps
Color space                : YUV
Chroma subsampling          : 4:2:0
Bit depth                  : 8 bits
Scan type                  : Progressive
Bits/(Pixel*Frame)          : 0.086
Stream size                : 623 MiB (96%)
Language                    : English
Encoded date                : UTC 2015-01-15 07:47:53
Tagged date                : UTC 2015-01-15 11:20:17

Audio
ID                          : 2
Format                      : AAC
Format/Info                : Advanced Audio Codec
Format profile              : HE-AAC / LC
Codec ID                    : 40
Duration                    : 36mn 40s
Bit rate mode              : Variable
Bit rate                    : 96.0 Kbps
Maximum bit rate            : 114 Kbps
Channel(s)                  : 2 channels
Channel positions          : Front: L R
Sampling rate              : 48.0 KHz / 24.0 KHz
Frame rate                  : 23.438 fps (1024 spf)
Compression mode            : Lossy
Stream size                : 25.3 MiB (4%)
Language                    : English
Encoded date                : UTC 2015-01-15 07:47:53
Tagged date                : UTC 2015-01-15 11:20:17
Added2016-06-05 22:30:32
Size649.93 MB (681,503,442 bytes)
Views0
Num files1 files
Pictures