♺ St Louis Boytoyz AMATEUR

CategoryBareback
Download
You need to Login or Signup first.
DescriptionOriginal upload: 2011-06-14 |
  General
      Complete name :[St Louis Boytoyz AMATEUR].avi
      Format : AVI
      Format/Info : Audio Video Interleave
      File size : 327 MiB
      Duration : 1h 20mn
      Overall bit rate : 565 Kbps
      Writing application : 3GP_Converter051103 www.nurs.or.jp/~calcium FFmpeg2.40b((51<<16)+(6<<8)+0)
      Writing library : VirtualDub build 29896/release
  Video #0
      ID : 0
      Format : MPEG-4 Visual
      Format profile : AdvancedSimple@L1
      Format settings, BVOP : Yes
      Format settings, QPel : No
      Format settings, GMC : No warppoints
      Format settings, Matrix : Default (H.263)
      Codec ID : divx
      Codec ID/Info : Mainly used by Google
      Codec ID/Hint : DivX
      Duration : 1h 20mn
      Bit rate : 488 Kbps
      Width : 320 pixels
      Height : 240 pixels
      Display aspect ratio : 4:3
      Frame rate : 25.000 fps
      Resolution : 24 bits
      Colorimetry : 4:2:0
      Scan type : Progressive
      Bits/(Pixel*Frame) : 0.254
      Stream size : 283 MiB (86%)
      Writing library : Lavc50.0.0
  Audio #1
      ID : 1
      Format : MPEG Audio
      Format version : Version 1
      Format profile : Layer 3
      Codec ID : 55
      Codec ID/Hint : MP3
      Duration : 1h 20mn
      Bit rate mode : Constant
      Bit rate : 64.0 Kbps
      Channel(s) : 2 channels
      Sampling rate : 44.1 KHz
      Resolution : 16 bits
      Stream size : 37.0 MiB (11%)
      Alignment : Aligned on interleaves
      Interleave, duration : 26 ms (0.65 video frame)
      Interleave, preload duration : 522 ms
      Writing library : LAMEUUULAME3.96.1
Added2015-03-18 17:36:05
Size327.01 MB (342,890,280 bytes)
Views2601
Num files1 files
Pictures