♺ Staxus Classic - Body Heat - Scene 4 mp4 torrent

You need to Login or Signup first.
DescriptionOriginal upload: 2016-07-10 |
Staxus Classic: Body Heat - Scene 4 - Remastered in HD

Everyone loves an orgy scene, but the industry know how difficult they can be. Plonk five young guys together and you might end up with a confusing blur of bodies rather than good porn. Fortunately for Staxus, director Vlado Iresch knew how to put an orgy scene together.

Of course, his task here is made easier because of the legendary Thomas Dyk – a fellow whose natural enjoyment of sex made him a pleasure to watch. There’s no denying that this is Dyk’s scene from beginning to end; with James Byron, Jerry Brand, Nikolas Markov and Peter Village quite simply revolving around his orbit like planets around a star. But, then, “star” is exactly the word for Dyk – a guy who lights up any scene he’s in.

Thomas goes to the beach and makes some new friends and they party all night, ending up at a bar at closing time. Fortunately, bartender James doesn't mind the boys sticking around, and is soon sticking himself right in the action. The boys are clearly loving it, which is why this classic scene from pre-HD was remastered to give them the clarity and visual richness they deserve.

Original release from 2013 remastered in 2016

Technical Information:

Complete name : Staxus Classic - Body Heat - Scene 4.mp4
Format : MPEG-4
File size : 710 MiB
Duration : 24mn 3s
Overall bit rate mode : Constant
Overall bit rate : 4 127 Kbps

Format/Info : AVC/Advanced Video Codec
Format profile : Main@L4.2
Bit rate mode : Constant
Bit rate : 4 000 Kbps
Width : 1 280 pixels
Height : 720 pixels
Display aspect ratio : 16:9
Frame rate mode : Constant
Frame rate : 30.000 fps
Standard : PAL
Color space : YUV
Chroma subsampling : 4:2:0
Bit depth : 8 bits
Scan type : Progressive
Bits/(Pixel*Frame) : 0.145
Stream size : 687 MiB (97%)
Language : English

Format/Info : AAC/Advanced Audio Codec
Format profile : LC
Codec ID : 40
Duration : 24mn 3s
Bit rate mode : Constant
Bit rate : 125 Kbps
Channel(s) : 2 channels
Sampling rate : 48.0 KHz
Frame rate : 46.875 fps (1024 spf)
Compression mode : Lossy
Stream size : 21.6 MiB (3%)
Language : English
Default : Yes

Added2016-10-21 05:32:20
Size710.35 MB (744,851,200 bytes)
Num files1 files