[coat] Hooking Up At The Dating Apps (出会い系アプリでナンパしたガチムチノンケのアナルを調教した結果、トロマンに仕上がったのでガン掘りしてみたら、アナルモロ感のノンケが出来上がってしまった件) [WST389]

CategoryAsian
Download
You need to Login or Signup first.
DescriptionGeneral
Complete name                  : F:[coat] Hooking Up At The Dating Apps (出会い系アプリでナンパしたガチムチノンケのアナルを調教した結果、トロマンに仕上がったのでガン掘りしてみたら、アナルモロ感のノンケが出来上がってしまった件) [WST389].wmv
Format                        : Windows Media
File size                      : 987 MiB
Duration                      : 2h 2mn
Overall bit rate mode          : Constant
Overall bit rate              : 1 130 Kbps
Maximum Overall bit rate      : 1 515 Kbps
Encoded date                  : UTC 2016-06-17 02:29:30.404

Video
ID                            : 2
Format                        : VC-1
Format profile                : Advanced@L1
Codec ID                      : WVC1
Codec ID/Hint                  : Microsoft
Description of the codec      : VC-1 - VC-1 Advanced Profile
Duration                      : 2h 2mn
Bit rate mode                  : Constant
Bit rate                      : 1 468 Kbps
Width                          : 640 pixels
Height                        : 360 pixels
Display aspect ratio          : 16:9
Frame rate                    : 30.000 fps
Original frame rate            : 15.000 fps
Color space                    : YUV
Chroma subsampling            : 4:2:0
Bit depth                      : 8 bits
Scan type                      : Progressive
Compression mode              : Lossy
Bits/(Pixel*Frame)            : 0.212
Stream size                    : 1.25 GiB
Language                      : Chinese (TW)

Audio
ID                            : 1
Format                        : WMA
Format profile                : Pro
Codec ID                      : 162
Codec ID/Info                  : Windows Media Audio
Description of the codec      : Windows Media Audio 10 Professional -  32 kbps, 32 kHz, 2 channel 16 bit 1-pass CBR
Duration                      : 2h 2mn
Bit rate mode                  : Constant
Bit rate                      : 32.0 Kbps
Channel(s)                    : 2 channels
Sampling rate                  : 32.0 KHz
Bit depth                      : 16 bits
Stream size                    : 28.0 MiB (3%)
Language                      : Chinese (TW)

Added2016-07-16 01:56:01
Size986.57 MB (1,034,489,454 bytes)
Views143
Num files1 files
Pictures