♺ Forbidden Funk - Black Rawnch HQ ~bareback

You need to Login or Signup first.
DescriptionOriginal upload: 2011-04-11 |
DAWG gets hot watching the classic porn flick Black Raunch and invites a few Bruthas over for some NASTY RAW FUNKIN'! These kats walk in and get started swallowing dick, eating hole, spanking ass, and licking nips and pits!

Next, RAW BLACK DICK starts punishing tight ass! BRYAN slams his 11 inch monster in every hole in the room; Dawg, JAY and DIBOI are getting their poles and holes worked over; and STARR's manpussy is so hungry that after taking 40 inches of dick he begs for more and pushes out a bright pink rosebud as a thank you for his stretching! The shit is so hot that one of the crew jumps in to drain his nut, kicking off a cum release chain reaction on Diboi's face!

Just when you think it's over, Dawg's roommate TENN arrives home with his boi, AMEEN, and once they see Bryan suck his own dick they gotta get some! Another round of fuckin' kicks in that leaves Ameen's hole dripping with nut!

Inspired by the films of Christopher Rage and Frank Ross, BLACK RAWNCH is a no frills, nonstop sex-fest that's 90 MINUTES OF PURE RAW FUNK!

Enjoy the show!

Format                          : AVI
Format/Info                  : Audio Video Interleave
Format profile                : OpenDML
File size                          : 2.17 GiB
Duration                        : 1h 38mn
Overall bit rate              : 3 175 Kbps

ID                                  : 0
Format                          : MPEG-4 Visual
Format profile                : Simple@L3
Format settings, BVOP  : No
Format settings, QPel    : No
Format settings, GMC    : No warppoints
Format settings, Matrix : Default (H.263)
Codec ID                        : XVID
Codec ID/Hint                : XviD
Duration                        : 1h 38mn
Bit rate                          : 2 910 Kbps
Width                            : 672 pixels
Height                            : 480 pixels
Display aspect ratio      : 1.400
Frame rate                    : 29.970 fps
Color space                    : YUV
Chroma subsampling      : 4:2:0
Bit depth                        : 8 bits
Scan type                      : Progressive
Compression mode        : Lossy
Bits/(Pixel*Frame)          : 0.301
Stream size                    : 1.99 GiB (92%)
Writing library                : ZJMedia MPEG Encoder

ID                              : 1
Format                      : AC-3
Format/Info              : Audio Coding 3
Mode extension        : CM (complete main)
Codec ID                    : 2000
Duration                    : 1h 38mn
Bit rate mode            : Constant
Bit rate                      : 192 Kbps
Channel(s)                : 2 channels
Channel positions      : Front: L R
Sampling rate            : 48.0 KHz
Bit depth                    : 16 bits
Compression mode    : Lossy
Stream size                : 135 MiB (6%)
Alignment                  : Split accross interleaves
Interleave, duration  : 84 ms (2.52 video frames)
Interleave, preload duration    : 83 ms

Added2015-10-27 09:30:07
Size2.18 GB (2,338,130,512 bytes)
Num files25 files