♺ Asiaboy net - Sensual Massage - 720p - Remastered - Bareback - SloMo Cumshot Bonus

CategoryAsian
Download
You need to Login or Signup first.
DescriptionOriginal upload: 2014-06-13 |
An innocent oil massage with two Asian guys can easily turn in to a slippery and erotic affair. Rain and his masseur discover this one afternoon when they embark on a romantic rub session. Ray starts washing Rain’s feet but somehow his hands find their way to the twink’s warm crotch. His penis is hard and his will is weak, so what follows is a very hot sequence of events. The appetizing chaps explore each others slippery slender bodies, solid erections and smooth booties. Oiled penis slides in to smooth hollows and wet kissers find famished tongues. Rain plays with Ray’s manmeat and easily triggers a great apogee in his companion. Ray cums so intense he shoots his jizz on the wall behind him. Yes, this is a disparate gay Asian adventure but with plenty of bareback performance and cute fellows.

Released: 2012
Duration: 32 min, 34 sec

Completely Remastered, with Color Correction results that were startling, to say the least!!!! See the Before & After Photos!!!

Includes a Bonus THREE minute Cumshots Video, with the actual cum scenes slowed down to 1/10th speed, so you can actually SEE the THREE volleys of cum shots hit the bed-board!!! And set to Techno music, edited to match the Bonus Video.

===============Personal Note================
I never could stand to watch this video, in the past, since the studio had done such an awful job of lighting (indirect, only ceiling and walls) and effects (darkening and boosting the reds so much), leaving the boys in the dark and almost not even visible... but I decided to take it on as a project, and I'm GLAD I did!!! I NOW can see this video for the genuine masterpiece it is; a 32 minute HOT oiled-up Thai "Massage" that gets WILDLY OUT OF CONTROL, with the oiled up boys flip-flop fucking, and with such a terrific THREE-VOLLEY cum shot, hitting the headboard, that it inspired me to create a stand-alone 3 minute plus Slo-Mo version of both the cum shots, set to Techno!!!

Surprisingly, when this video was "brought out of the mud" (as we actually used to say in the Postproduction Biz, meaning "lightened up") it became a true gem. It's now become one of MY favorite Thai Sex Videos, and I've got a feeling it will become one of yours too, once you take a look. I haven't seen anything THIS HOT and THIS ENERGIZED, and well shot, edited, and produced (aside from the awful original lighting, dark tones)... in a long long time.

==============Technical Notes==================
Like I said at the outset, this video was so deeply flawed, as released by the studio, that it was... unwatchable. As I've see happen so many times, a studio gets an idea for a theme (in this case a supposed deep and dark massage) and they just go TOO far in the extremes of strange lighting and strange color correction, so as to sadly become so very flawed (not being able to see the beautiful boys) as to be unwatchable... how SAD is that! 

I don't think I'm being too picky, altho my 20 year career in Video Postproduction Engineering might have made me be a bit critical... But take a look at the Before and After Photo, and tell me what YOU think!

Rather severe (VirtualDub) filter settings were required to restore this masterpiece: Red reduced to 93.5%, hue -3 degrees, Saturation cranked down to 76%, Intensity boosted to 133%, Brightness boosted 7.4%, Contrast boosted 125%, and lastly, Sharpened 24 (of maximum setting of 64). WHEW!!!

The Slow Motion bonus video was created by copying the final portion to another file in an uncompressed format, using VirtualDub, then utilizing a keyboard macro I wrote to duplicate frames, number replicated and total replications, as variables, for ONLY the actual cum scenes, leaving the surrounding video at normal speed. Techno music was edited and modified, using the Audacity program, and added back in, using VirtualDub.

Video Compression for both was achieved by using the two-pass version of Xvid, where the first pass records picture movement into a data file, and the second pass uses this data to create a variable data bit rate, to achieve a Bits/(Pixel*Frame) rate of 0.205. Conventional wisdom is that any video detail greater than a Qbit rate of .2 is undetectable by the human eye. Audio Compression was MP3, LAME3.98.4.

===============Technical Specs, Detailed=============
[General] Complete name : Asiaboy.net Sensual Massage - 720p - Remastered.avi
Format : AVI
Format/Info : Audio Video Interleave
File size : 1.06 GiB
Duration : 32mn 34s
Overall bit rate : 4 677 Kbps
Writing library : VirtualDub build 32839/release

[Video] ID : 0
Format : MPEG-4 Visual
Format profile : Advanced Simple@L5
Format settings, BVOP : 2
Format settings, QPel : No
Format settings, GMC : No warppoints
Format settings, Matrix : Default (MPEG)
Muxing mode : Packed bitstream
Codec ID : XVID
Codec ID/Hint : XviD
Duration : 32mn 34s
Bit rate : 4 539 Kbps
Width : 1 280 pixels
Height : 720 pixels
Display aspect ratio : 16:9
Frame rate : 23.976 fps
Color space : YUV
Chroma subsampling : 4:2:0
Bit depth : 8 bits
Scan type : Progressive
Compression mode : Lossy
Bits/(Pixel*Frame) : 0.205
Stream size : 1.03 GiB (97%)
Writing library : XviD 64

[Audio] ID : 1
Format : MPEG Audio
Format version : Version 1
Format profile : Layer 3
Mode : Joint stereo
Mode extension : MS Stereo
Codec ID : 55
Codec ID/Hint : MP3
Duration : 32mn 34s
Bit rate mode : Constant
Bit rate : 128 Kbps
Channel count : 2 channels
Sampling rate : 44.1 KHz
Compression mode : Lossy
Stream size : 29.8 MiB (3%)
Alignment : Split across interleaves
Interleave, duration : 42 ms (1.00 video frame)
Interleave, preload duration : 500 ms
Writing library : LAME3.98.4
Added2016-06-12 14:49:11
Size1.17 GB (1,260,015,514 bytes)
Views212
Num files80 files
Pictures