HomoEmo - Zackarry Starr & Domino Harvey

CategoryTwinks
Download
You need to Login or Signup first.
DescriptionVideo
ID                            : 2
Format                        : VC-1
Format profile                : MP@HL
Codec ID                      : WMV3
Codec ID/Info                  : Windows Media Video 9
Codec ID/Hint                  : WMV3
Description of the codec      : Windows Media Video 9 - Professional
Duration                      : 16 min 2 s
Bit rate mode                  : Constant
Bit rate                      : 3 050 kb/s
Width                          : 768 pixels
Height                        : 432 pixels
Display aspect ratio          : 16:9
Frame rate                    : 30.000 FPS
Color space                    : YUV
Chroma subsampling            : 4:2:0
Bit depth                      : 8 bits
Scan type                      : Progressive
Compression mode              : Lossy
Bits/(Pixel*Frame)            : 0.306
Stream size                    : 350 MiB (97%)
Language                      : English (Great Britain)

Audio
ID                            : 1
Format                        : WMA
Format version                : Version 2
Codec ID                      : 161
Codec ID/Info                  : Windows Media Audio
Description of the codec      : Windows Media Audio 9.2 -  96 kbps, 44 kHz, stereo (A/V) 1-pass CBR
Duration                      : 16 min 2 s
Bit rate mode                  : Constant
Bit rate                      : 96.0 kb/s
Channel(s)                    : 2 channels
Sampling rate                  : 44.1 kHz
Bit depth                      : 16 bits
Stream size                    : 11.0 MiB (3%)
Language                      : English (Great Britain)

Added2017-07-23 13:42:56
Size361.57 MB (379,131,223 bytes)
Views194
Num files1 files
Pictures