♺ SXvideo - Monster Cocks  ~interracial

CategoryBareback
Download
You need to Login or Signup first.
DescriptionOriginal upload: 2010-05-26 |
~H.Q.~Jarod Steel~Interracial->Black-Latino-White

Running the gamut of Pain to Pleasure, 10 hung hunks (including cutie Jarod Steel), with HUGE OVERSIZE cocks, proceed to fuck their partners into senseless submission. Bonus Points appreciated!
-----------------------------------
Personal Note: This is a fresh conversion I just created from the original DVD files, sharpened, just a tad. The conversion was performed by uncomressing the DVD files (to a whopping 168 gigabytes!), then re-encoding, using the Xvid codec in 2-pass mode, first to detect motion, then to utilize Variable Bit Rate encoding for the most efficient Video Compression, achieving a uniform look of high quality, plus MP3 audio, resulting in a somewhat reasonable file size. This video has a Gspot Qf (Quality Factor) of .206 for near-DVD quality. Enjoy!

Any bonus points that you can afford to award me for my efforts would be greatly appreciated! In as I'm usually downloading DVDs to convert, process, and perhaps color correct, to offer here, I struggle to maintain my UL/DL ratio; and your gift would certainly help me, in this regard.
------------------------------------
Title: Monster Cock 1
Released: 2007
Duration: 96 min
Country:  US
Studio :  SX Video
Cast:  Chris Neal, Tony Serrano, Johnny Hanson, Erec Estrada, Rod Rockhard, Lito Cruz, Jarod Steel, Payton Michaels, Angel Rocha, Alessandro Teradyne
Director:  Ben Baird
------------------------------------
Synopsis; From the press notes:
"There's no need to be afraid of these monsters. They are ass teasers and pleasers.

The first scene features Chris Neal and Tony Serrano using their big dicks to fuck some sense into Jarod Steel. Seeing how much Jarod enjoys being topped, Tony offers his ass to Chris for more of the same.

Johnny Hanson makes his bareback debut in scene two. Cute, little Payton Michaels (who has a nice-sized poker himself) likes big dick and wastes no time getting his mouth around Johnny's fat monster. Next, he sits on it to get used to the size and then they are off in a fucking frenzy.

Lito Cruz and Erec Estrada show off their uncut whoppers in the third scene. Lito does some extended rimming to get Erec ready to receive cock and then gives it. He shoots a big, load deep in Erec's hole to finish.

Payton, not satisfied with the ass ripping he got from Johnny, returns in scene four to take the biggest monster cock of his life. Rod Rockhard's uncut, curved beast enjoys all the attention it gets. Payton takes it like a champ, flipping between pleasure and pain.
----------------------------------
Keywords: Age: College Freshmen to Late 20s,  Age: Intergenerational,  Body Types: Average/Regular Build,  Body Types: Beefy/Bodybuilders/Muscle Men,  Body Types: Gymnasts/Ripped/Swimmers,  Body/Chest Hair: Natural/Unshaven,  Body/Chest Hair: None (Hairless/Shaved/Smooth),  Cast's Looks: Average Looking/Everyday,  Cast's Looks: Butch/Rugged/Tough,  Cast's Looks: Chiseled Face/Handsome,  Cock Sizes: Horsehung/Size-Queen Alert,  Facial Hair: Goatees/Soul Patches,  Facial Hair: None (Clean Shaven),  Foreskin Play/Uncut Cocks,  Interracial,  Latino Men in the Cast,  Men of Color in the Cast,  No Condoms: Barebacking,  Piercings: Navels/Nipples/Tongues,  Tattoos: Extreme/Full Sleeve/Heavily Inked,  Threesomes/Threeways
Genres: Bareback
---------------------------------
Multimedia Analysis of:  [SX Video] Monster Cock.avi
General:
Complete name : [SX Video] Monster Cock.avi
Format : AVI
Format/Info : Audio Video Interleave
File size : 1.53 GiB
Duration : 1h 36mn
Overall bit rate : 2 278 Kbps
Writing application : VirtualDubMod 1.5.10.2 (build 2542/release)
Writing library : VirtualDubMod build 2542/release

Video  ID : 0
Format : MPEG-4 Visual
Format profile : Advanced Simple@L5
Format settings, BVOP : Yes
Format settings, QPel : No
Format settings, GMC : No warppoints
Format settings, Matrix : Default (MPEG)
Muxing mode : Packed bitstream
Codec ID : XVID
Codec ID/Hint : XviD
Duration : 1h 36mn
Bit rate : 2 138 Kbps
Width : 720 pixels
Height : 480 pixels
Display aspect ratio : 4:3
Frame rate : 29.970 fps
Standard : NTSC
Resolution : 8 bits
Colorimetry : 4:2:0
Scan type : Progressive
Bits/(Pixel*Frame) : 0.206
Stream size : 1.44 GiB (94%)
Writing library : XviD 1.2.1 (UTC 2008-12-04)

Audio  ID : 1
Format : MPEG Audio
Format version : Version 1
Format profile : Layer 3
Mode : Joint stereo
Codec ID : 55
Codec ID/Hint : MP3
Duration : 1h 36mn
Bit rate mode : Constant
Bit rate : 128 Kbps
Channel(s) : 2 channels
Sampling rate : 44.1 KHz
Stream size : 88.3 MiB (6%)
Alignment : Split accross interleaves
Interleave, duration : 33 ms (1.00 video frame)
Interleave, preload duration : 500 ms
Writing library : LAME3.98.2

Added2016-05-04 03:45:37
Size1.53 GB (1,647,756,278 bytes)
Views7539
Num files2 files
Pictures