♺ [teens-boys-world] Farrell & Gena - Get Some mp4

CategoryTwinks
Download
You need to Login or Signup first.
DescriptionOriginal upload: 2012-06-18 |
So brand new, it's not even been officially released yet, this is TBW's latest very horny and excellently produced video. (For those who don't know TBW release their videos in parts over several weeks then once all parts have been released, they release a HD full length version. At the time of writing only the first 3 parts of this video have been released). Nevertheless you can get the full length HD version via the love of gaytorrent.ru! Isn't this site good to you?!

Is it just me or does Farrell (the floppy haired bottom boy in this video) look a bit like Edvin in this flick?Actually I think the long hair looks a lot sexier on Farrell than it does on Edvin (personally I think Edvin has gone from hot to scorching since he had his haircut as seen in his latest photoset with top boy Feliks). Anyway in this video Farrell shows Gena his oral skills and then kindly takes it up the ass (what a nice boy he is!!). Along with some great cock sucking, some terrific butt fucking, there is also some great post orgasm cock licking at the end of this one.


***********************************************************************************
If you like the youthful teenboys of TBW, I have some other (rare) material that I think you will love. Please provide an incentive for me to go through my very unorganized collection and locate the relevant videos and photosets for you - either just say "thank you" or if you can spare some love please give me some of your seed points. Thanks guys, I'm feeling your love!
***********************************************************************************

Finally just a heads up that after this video ends and the screen fades to black, a logo appears on screen. This shouldn't be any problem for most normal folks, but people as obsessive as me may want a pristine copy (in which case either do as I did and download this one until the pristine copy becomes available or just wait for the latter). Just to clarify the logo only appears after the video has finished (of course the usual TBW logo appears as usual on screen throughout the action).

Oh and for any anally retentive nerds, here's some technical info to give you a hard-on (lol):

General
File name: 72 - Farrell & Gena -Get Some.mp4
Format: MPEG-4
Format profile: Base Media / Version 2
Codec ID: mp42
File size: 1.17 GiB
Duration: 36mn 12s
Overall bit rate mode: Variable
Overall bit rate: 4 625 Kbps
Encoded date: UTC 2012-05-24 16:31:53
Tagged date: UTC 2012-05-24 16:33:41
Writing application: mp4creator 1.6.1d

Video
ID: 1
Format: AVC
Format/Info: Advanced Video Codec
Format profile: High@L4.0
Format settings, CABAC: No
Format settings, ReFrames: 1 frame
Codec ID: avc1
Codec ID/Info: Advanced Video Coding
Duration: 36mn 12s
Bit rate mode: Variable
Bit rate: 4 491 Kbps
Width: 1 280 pixels
Height: 720 pixels
Display aspect ratio: 16:9
Frame rate mode: Constant
Frame rate: 25.000 fps
Color space: YUV
Chroma subsampling: 4:2:0
Bit depth: 8 bits
Scan type: Progressive
Bits/(Pixel*Frame): 0.195
Stream size: 1.14 GiB (97%)
Language: English
Encoded date: UTC 2012-05-24 16:31:53
Tagged date: UTC 2012-05-24 16:33:40

Audio
ID: 2
Format: AAC
Format/Info: Advanced Audio Codec
Format profile: LC
Codec ID: 40
Duration: 36mn 10s
Source duration: 36mn 11s
Bit rate mode: Variable
Bit rate: 132 Kbps
Maximum bit rate: 311 Kbps
Channel(s): 2 channels
Channel positions: Front: L R
Sampling rate: 44.1 KHz
Compression mode: Lossy
Stream size: 34.1 MiB (3%)
Source stream size: 34.1 MiB
Encoded date: UTC 2012-05-24 16:33:40
Tagged date: UTC 2012-05-24 16:33:41
Added2015-07-29 06:58:08
Size1.17 GB (1,256,275,179 bytes)
Views1660
Num files1 files
Pictures