♺ Homens - Gatos Entre 4 Paredes Volume 2

CategoryLatino
Download
You need to Login or Signup first.
DescriptionOriginal upload: 2012-09-26 |
General

Format                                  : AVI
Format/Info                              : Audio Video Interleave
File size                                : 1.06 GiB
Duration                                : 1h 42mn
Overall bit rate                        : 1 481 Kbps

Video
ID                                      : 0
Format                                  : MPEG-4 Visual
Format profile                          : Advanced Simple@L5
Format settings, BVOP                    : 2
Format settings, QPel                    : No
Format settings, GMC                    : No warppoints
Format settings, Matrix                  : Default (H.263)
Muxing mode                              : Packed bitstream
Codec ID                                : XVID
Codec ID/Hint                            : XviD
Duration                                : 1h 42mn
Bit rate                                : 1 277 Kbps
Width                                    : 720 pixels
Height                                  : 480 pixels
Display aspect ratio                    : 3:2
Frame rate                              : 29.970 fps
Standard                                : NTSC
Color space                              : YUV
Chroma subsampling                      : 4:2:0
Bit depth                                : 8 bits
Scan type                                : Progressive
Compression mode                        : Lossy
Bits/(Pixel*Frame)                      : 0.123
Stream size                              : 940 MiB (86%)
Writing library                          : XviD 1.1.0 (UTC 2005-11-22)

Audio
ID                                      : 1
Format                                  : MPEG Audio
Format version                          : Version 1
Format profile                          : Layer 3
Codec ID                                : 55
Codec ID/Hint                            : MP3
Duration                                : 1h 42mn
Bit rate mode                            : Constant
Bit rate                                : 192 Kbps
Channel(s)                              : 2 channels
Sampling rate                            : 44.1 KHz
Compression mode                        : Lossy
Delay relative to video                  : 26ms
Stream size                              : 141 MiB (13%)
Alignment                                : Split accross interleaves
Interleave, duration                    : 33 ms (1.00 video frame)
Title                                    : Audio Stream
Writing library                          : LAME3.92

-------
Descricao/Sinopse:
Eles fazem simplesmente TUDO para atingirem o prazer total!!
Mais uma superproducao brasileira com os homens mais lindos,quentes e gostosos do porno! Aproveite.

Description:
They simply do ANYTHING to reach the total pleasure!
More overproduction Brazilian men with the most beautiful, hot and delicious in porn! Enjoy.

ATORES: [Actors/Performer]:
Felix
Antony
Robson Romaneli
Patrick
Tiago Pavanello
Dado Moraes
Junior Carioca
Alan
Added2015-11-28 09:29:06
Size1.06 GB (1,143,322,112 bytes)
Views622
Num files1 files
Pictures