Biker Boys

CategoryYoungblood
Download
You need to Login or Signup first.
DescriptionGeneral
Complete name                            : BikerBoys.avi
Format                                  : AVI
Format/Info                              : Audio Video Interleave
File size                                : 1.48 GiB
Duration                                : 1h 15mn
Overall bit rate                        : 2 825 Kbps
Writing library                          : Boilsoft Joiner build 2411/release

Video
ID                                      : 0
Format                                  : MPEG-4 Visual
Format profile                          : Advanced Simple@L5
Format settings, BVOP                    : 2
Format settings, QPel                    : No
Format settings, GMC                    : No warppoints
Format settings, Matrix                  : Default (H.263)
Muxing mode                              : Packed bitstream
Codec ID                                : XVID
Codec ID/Hint                            : XviD
Duration                                : 1h 15mn
Bit rate                                : 2 623 Kbps
Width                                    : 720 pixels
Height                                  : 576 pixels
Display aspect ratio                    : 5:4
Frame rate                              : 25.000 fps
Standard                                : PAL
Color space                              : YUV
Chroma subsampling                      : 4:2:0
Bit depth                                : 8 bits
Scan type                                : Progressive
Compression mode                        : Lossy
Bits/(Pixel*Frame)                      : 0.253
Stream size                              : 1.38 GiB (93%)
Writing library                          : XviD 1.2.1 (UTC 2008-12-04)

Audio
ID                                      : 1
Format                                  : MPEG Audio
Format version                          : Version 1
Format profile                          : Layer 3
Codec ID                                : 55
Codec ID/Hint                            : MP3
Duration                                : 1h 15mn
Bit rate mode                            : Constant
Bit rate                                : 192 Kbps
Channel(s)                              : 2 channels
Sampling rate                            : 44.1 KHz
Compression mode                        : Lossy
Delay relative to video                  : 26ms
Stream size                              : 103 MiB (7%)
Alignment                                : Split accross interleaves
Interleave, duration                    : 40 ms (1.00 video frame)
Interleave, preload duration            : 500 ms
Writing library                          : LAME3.92
Added2015-01-20 00:34:34
Size1.48 GB (1,594,028,032 bytes)
Views15
Num files1 files
Pictures