♺ Brigade Studios - Camp Fire Guys (Campfire Guys)

CategoryYoungblood
Download
You need to Login or Signup first.
DescriptionOriginal upload: 2012-12-24 |
Camp Fire Guys / Campfire Guys
Canada, 1999
Brigade Studios / Celestial Entertainment / Video 10
Director: David Collins

Actors: Alexi Ferron, Chris Simone, Justin Cruz, Pat Patrique, Patrick Labelle, Sebastian Max, Thery Donaldson, Tonatieu Christian

Description: Here the great outdoors provide an intoxicating backdrop for backpackers to become, ahem, fudgepackers!
First, Thery and Toniteau emerge from their tent and decide to go on a hike. Along the way, they spot Pat and Chris in an adjacent glade battling with water pistols. Pat takes a squirt, thereby losing the battle but winning the war by taking it up the butt from Chris.
Next, Thery and Toniteau spy Sebastian and Patrick enjoying a naked dip in the mountain lake. Then, Justin and Alexi cross their path and couple up with Sebastian and Patrick for a four-way amongst the trees. Finally, Thery tops Toniteau to consummate their outdoor adventure.

Duration: 01:13:49
Quality: VOD
Format: WMV
Aspect Ratio: 4:3

=== MediaInfo ===
General
Complete name                            : Camp Fire Guys (Brigade Studios).wmv
Format                                  : Windows Media
File size                                : 2.04 GiB
Duration                                : 1h 13mn
Overall bit rate mode                    : Variable
Overall bit rate                        : 3 960 Kbps
Maximum Overall bit rate                : 7 079 Kbps
Movie name                              : Camp Fire Guys
Encoded date                            : UTC 2011-07-16 22:24:25.707
Comment                                  : Processed by freeware version of AsfBin

Video
ID                                      : 2
Format                                  : WMV2
Codec ID                                : WMV2
Codec ID/Info                            : Windows Media Video 8
Description of the codec                : Windows Media Video V8
Duration                                : 1h 13mn
Bit rate                                : 4 103 Kbps
Width                                    : 720 pixels
Height                                  : 480 pixels
Display aspect ratio                    : 3:2
Frame rate                              : 29.970 fps
Standard                                : NTSC
Bit depth                                : 8 bits
Bits/(Pixel*Frame)                      : 0.396
Stream size                              : 2.12 GiB
Language                                : English (US)

Audio
ID                                      : 1
Format                                  : WMA
Format version                          : Version 2
Codec ID                                : 161
Codec ID/Info                            : Windows Media Audio
Description of the codec                : Windows Media Audio 9.2 - 128 kbps, 48 kHz, stereo (A/V) 1-pass CBR
Duration                                : 1h 13mn
Bit rate mode                            : Variable
Bit rate                                : 128 Kbps
Channel(s)                              : 2 channels
Sampling rate                            : 48.0 KHz
Bit depth                                : 16 bits
Stream size                              : 67.6 MiB (3%)
Language                                : English (US)
Added2014-12-08 11:00:10
Size2.04 GB (2,192,596,650 bytes)
Views128
Num files1 files
Pictures