Japan Pictures - Glossman NM34 - NO Mask - Enhanced

CategoryAsian
Download
You need to Login or Signup first.
DescriptionJapan Pictures - 8 HOT Scenes, 8 Cumshots! NoMask - Conformed & Enhanced

Rare to find HOT Japanese Porn without masking... and FLAWLESS QUALITY, too!!!

8 Hunky Japanese guys either stroke themselves, or are sucked and stroked into 8 Intense Cum-Splattering Orgasms!

Duration: 1 hour
Resolution: 640 x 480
Video BitRate: 2431 kbps
Quality: EXCELLENT

Conformed (resized slightly to Standard VGA) and Sharpened, moderately...

Personal note... any time I find myself spending TWO hours selecting the best pictures from a video to share with you... it shows just how amazing the shots really are, in my mind. I hope you like this video as much as I do!!

Seed points greatly appreciated...  Enjoy!

========================Technical Details=========================
[General] Complete name : Japan Pictures - Glossmen NM34 - Conformed -NoMask.avi
Format : AVI
Format/Info : Audio Video Interleave
File size : 1.06 GiB
Duration : 59mn 5s
Overall bit rate : 2 569 Kbps
Writing library : VirtualDub build 32839/release

[Video] ID : 0
Format : MPEG-4 Visual
Format profile : Advanced Simple@L5
Format settings, BVOP : 1
Format settings, QPel : No
Format settings, GMC : No warppoints
Format settings, Matrix : Default (MPEG)
Muxing mode : Packed bitstream
Codec ID : XVID
Codec ID/Hint : XviD
Duration : 59mn 5s
Bit rate : 2 431 Kbps
Width : 640 pixels
Height : 480 pixels
Display aspect ratio : 4:3
Frame rate : 23.976 fps
Color space : YUV
Chroma subsampling : 4:2:0
Bit depth : 8 bits
Scan type : Progressive
Compression mode : Lossy
Bits/(Pixel*Frame) : 0.330
Stream size : 1.00 GiB (95%)
Writing library : XviD 64

[Audio] ID : 1
Format : MPEG Audio
Format version : Version 1
Format profile : Layer 3
Mode : Joint stereo
Mode extension : MS Stereo
Codec ID : 55
Codec ID/Hint : MP3
Duration : 59mn 5s
Bit rate mode : Constant
Bit rate : 128 Kbps
Channel count : 2 channels
Sampling rate : 48.0 KHz
Compression mode : Lossy
Stream size : 54.1 MiB (5%)
Alignment : Split accross interleaves
Interleave, duration : 42 ms (1.00 video frame)
Interleave, preload duration : 500 ms

Added2014-06-26 16:50:15
Size1.08 GB (1,164,540,379 bytes)
Views11
Num files167 files
Pictures