♺ Dark Alley Media - White Boy Bottom Sluts wmv

CategoryBareback
Download
You need to Login or Signup first.
DescriptionOriginal upload: 2014-05-19 |
White Boy Bottom Sluts

Running Time: 98 minutes

Released: 08/2010

Studio: Dark Alley Media

Director: Matthias Von Fistenberg

Categories: New Release Bareback Hardcore Interracial Anal Black Big Dick

Stars: Seth Miller,Aandre,Fredrick Berlin,B.J. Rider,Owen Hawk,Sandro,Franco Cento,Tim Rusty,Paris (m),Wylie Todd,Styles (m)

White Boy Bottom Sluts
( some monster cocks, double penetration even ( and this is a first for me) oil used as lube! my hot fav of the moment Fredrick Berlin in scene one !)

A hot interracial flick! Hot white guys with even hotter white asses get topped and

completely destroyed by the biggest black dicks around. Watch each one of these

guys bend over for a hard fucking, then suck down every inch and load of that

these black cocks shoot out.

enjoy


AUDIO STATS

Audio #1
ID : 1
Format : WMA2
Codec ID : 161
Codec ID/Info : Windows Media Audio 2
Description of the codec : Windows Media Audio 9.2 - 64 kbps, 44 kHz, stereo (A/V) 1-pass CBR
Duration : 1h 37mn
Bit rate mode : Constant
Bit rate : 128 Kbps
Channel(s) : 2 channels
Sampling rate : 44.1 KHz
Resolution : 16 bits
Stream size : 89.4 MiB (6%)
Audio #2
ID : 2
Format : WMA2
Codec ID : 161
Codec ID/Info : Windows Media Audio 2
Description of the codec : Windows Media Audio 9.2 - 64 kbps, 44 kHz, stereo (A/V) 1-pass CBR
Duration : 1h 37mn
Bit rate mode : Constant
Bit rate : 128 Kbps
Channel(s) : 2 channels
Sampling rate : 44.1 KHz
Resolution : 16 bits
Stream size : 89.4 MiB (6%)
Audio #3
ID : 3
Format : WMA2
Codec ID : 161
Codec ID/Info : Windows Media Audio 2
Description of the codec : Windows Media Audio 9.2 - 64 kbps, 44 kHz, stereo (A/V) 1-pass CBR
Duration : 1h 37mn
Bit rate mode : Constant
Bit rate : 128 Kbps
Channel(s) : 2 channels
Sampling rate : 44.1 KHz
Resolution : 16 bits
Stream size : 89.4 MiB (6%)
Audio #4
ID : 4
Format : WMA2
Codec ID : 161
Codec ID/Info : Windows Media Audio 2
Description of the codec : Windows Media Audio 9.2 - 64 kbps, 44 kHz, stereo (A/V) 1-pass CBR
Duration : 1h 37mn
Bit rate mode : Constant
Bit rate : 64.0 Kbps
Channel(s) : 2 channels
Sampling rate : 44.1 KHz
Resolution : 16 bits
Stream size : 44.7 MiB (3%)

Added2016-07-23 10:01:07
Size1.29 GB (1,389,968,313 bytes)
Views365
Num files1 files
Pictures