Pumping muscle 19 yo Bodybuilder blake o mp4

CategoryHunks
Download
You need to Login or Signup first.
DescriptionDuration: 2hours 48min

Blake is a 19 year old bodybuilder from Texas who
shot with PumpingMuscle training arms in his home
gym and modeling indoors and outside in October
of 2013 a couple weeks before competing in a
bodybuilding contest.

Format                                  : MPEG-4
Format profile                          : Base Media / Version 2
Codec ID                                : mp42
File size                                : 2,79 GiB
Duration                                : 2h 48min
Overall bit rate mode                    : variabel
Overall bit rate                        : 2 367 Kbps
Encoded date                            : UTC 2014-12-19 13:28:37
Tagged date                              : UTC 2014-12-19 13:28:37

Video
ID                                      : 1
Format                                  : AVC
Format/Info                              : Advanced Video Codec
Format profile                          : High@L3.1
Format settings, CABAC                  : Ja
Format settings, ReFrames                : 4 frames
Codec ID                                : avc1
Codec ID/Info                            : Advanced Video Coding
Duration                                : 2h 48min
Bit rate                                : 2 215 Kbps
Width                                    : 1 280 Pixel
Height                                  : 720 Pixel
Display aspect ratio                    : 16:9
Frame rate mode                          : konstant
Frame rate                              : 29,970 FPS
Color space                              : YUV
Chroma subsampling                      : 4:2:0
Bit depth                                : 8 bits
Scan type                                : progressiv
Bits/(Pixel*Frame)                      : 0.080
Stream size                              : 2,61 GiB (94%)
Writing library                          : x264 core 142 r11 24e4fed

Color primaries                          : BT.709
Transfer characteristics                : BT.709
Matrix coefficients                      : BT.709
Color range                              : Limited

Audio
ID                                      : 2
Format                                  : AAC
Format/Info                              : Advanced Audio Codec
Format profile                          : LC
Codec ID                                : 40
Duration                                : 2h 48min
Bit rate mode                            : variabel
Bit rate                                : 147 Kbps
Channel(s)                              : 2 Kanäle
Channel positions                        : Front: L R
Sampling rate                            : 48,0 KHz
Stream size                              : 177 MiB (6%)
Encoded date                            : UTC 2014-12-19 13:28:37
Tagged date                              : UTC 2014-12-19 13:28:37


Added2015-05-15 13:18:41
Size2.79 GB (2,990,531,703 bytes)
Views74
Num files1 files
Pictures