Taken down by DMCA request

GayLifeNetwork - Dustin Cooper & Preston Andrews

CategoryTwinks
Download
You need to Login or Signup first.
DescriptionVideo
ID                            : 1
Format                        : AVC
Format/Info                    : Advanced Video Codec
Format profile                : Baseline@L3.1
Format settings, CABAC        : No
Format settings, ReFrames      : 3 frames
Codec ID                      : avc1
Codec ID/Info                  : Advanced Video Coding
Duration                      : 15 min 44 s
Bit rate                      : 3 455 kb/s
Maximum bit rate              : 7 094 kb/s
Width                          : 1 280 pixels
Height                        : 720 pixels
Display aspect ratio          : 16:9
Frame rate mode                : Constant
Frame rate                    : 29.970 (30000/1001) FPS
Color space                    : YUV
Chroma subsampling            : 4:2:0
Bit depth                      : 8 bits
Scan type                      : Progressive
Bits/(Pixel*Frame)            : 0.125
Stream size                    : 389 MiB (96%)
Writing library                : x264 core 115 r1947kMod b5a8ad7
Encoding settings              : cabac=0 / ref=3 / deblock=1:0:0 / analyse=0x1:0x111 / me=hex / subme=7 / psy=1 / fade_compensate=0.10 / psy_rd=1.00:0.00 / mixed_ref=1 / me_range=16 / chroma_me=1 / trellis=1 / 8x8dct=0 / cqm=0 / deadzone=21,11 / fast_pskip=1 / chroma_qp_offset=-2 / threads=12 / sliced_threads=0 / nr=0 / decimate=1 / interlaced=0 / bluray_compat=0 / constrained_intra=0 / bframes=0 / weightp=0 / keyint=250 / keyint_min=25 / scenecut=40 / intra_refresh=0 / rc_lookahead=40 / rc=crf / mbtree=1 / crf=21.0000 / qcomp=0.60 / qpmin=0 / qpmax=69 / qpstep=4 / vbv_maxrate=14000 / vbv_bufsize=14000 / crf_max=0.0 / nal_hrd=none / ip_ratio=1.40 / aq=1:1.00
Encoded date                  : UTC 2011-08-15 15:29:49
Tagged date                    : UTC 2011-08-15 15:31:12

Audio
ID                            : 2
Format                        : AAC
Format/Info                    : Advanced Audio Codec
Format profile                : LC
Codec ID                      : 40
Duration                      : 15 min 44 s
Bit rate mode                  : Variable
Bit rate                      : 127 kb/s
Maximum bit rate              : 152 kb/s
Channel(s)                    : 2 channels
Channel positions              : Front: L R
Sampling rate                  : 44.1 kHz
Frame rate                    : 43.066 FPS (1024 spf)
Compression mode              : Lossy
Stream size                    : 14.3 MiB (4%)
Encoded date                  : UTC 2011-08-15 15:31:10
Tagged date                    : UTC 2011-08-15 15:31:12


Added2017-07-23 14:17:02
Size403.41 MB (423,003,319 bytes)
Views150
Num files1 files
Pictures