Japanboyz - Sensual Sensations Between Boys

You need to Login or Signup first.
DescriptionHere to have some fun, Riku, on the left will bottom and Nobu will top. Both of these Japanboyz.com models enjoy the sensual touch of a man and judging by their bashful smiles, this is going to be a hot scene. Long, lingering kisses with full on fondling, has both Riku and Nobu up and hard even before they undress one another. So sensitive are Riku's nipples, that Nobu can't help but spend some "quality time" lapping at them. Sucking the bottom's dick, Nobu is enthralled. Then it's the top's turn; I love how he pushes Riku's face into his crotch. As the camera goes behind the bottom's bottom, I envy the enjoyment they will soon have as that bubble butt looks like sheer pleasure.

The pair intertwine their bodies and orally satisfy each other. Nobu then lubes up Riku's hole and penetrates with his finger; love seeing the top's dick twitch as his digit explores. Hearing Riku's soft moans intensifies the bond they are sharing. Taking the bottom boy from behind, Nobu pants softly as he works Riku's hole. Flipping to his back, Riku opens himself up fully to allow the top total access. Together they work, continually touching one another; Nobu can't get enough of Riku's dick as he "multitasks" the boy. Clawing at the bottom's nipples has Riku close; as he blows his load, a huge pool of cream lands onto his freckled stomach. Pulling out, Riku jerks until he too adds to the delight. Together the boys shower, once again, a time of passion and continual touching.

Title: Sensual Sensations Between Boys
Released: Oct. 5, 2014
Duration: 23 Minutes
Studio: Japanboyz.com
Models: Riku and Nobu
=============Technical Specs==================
[General] Complete name : Japanboyz - Sensual Sensations Between Boys.mp4
Format : MPEG-4
Format profile : Base Media
Codec ID : isom
File size : 771 MiB
Duration : 22mn 55s
Overall bit rate mode : Variable
Overall bit rate : 4 703 Kbps
Encoded date : UTC 2014-07-17 12:45:21
Tagged date : UTC 2014-07-17 12:45:21

[Video] ID : 1
Format : AVC
Format/Info : Advanced Video Codec
Format profile : Main@L3.1
Format settings, CABAC : Yes
Format settings, ReFrames : 2 frames
Format settings, GOP : M=3, N=15
Codec ID : avc1
Codec ID/Info : Advanced Video Coding
Duration : 22mn 55s
Bit rate mode : Variable
Bit rate : 4 507 Kbps
Maximum bit rate : 5 000 Kbps
Width : 1 280 pixels
Height : 720 pixels
Display aspect ratio : 16:9
Frame rate mode : Constant
Frame rate : 30.000 fps
Standard : NTSC
Color space : YUV
Chroma subsampling : 4:2:0
Bit depth : 8 bits
Scan type : Progressive
Bits/(Pixel*Frame) : 0.163
Stream size : 739 MiB (96%)
Language : English
Encoded date : UTC 2014-07-17 12:45:21
Tagged date : UTC 2014-07-17 12:45:21
Color primaries : BT.709
Transfer characteristics : BT.709
Matrix coefficients : BT.709

[Audio] ID : 2
Format : AAC
Format/Info : Advanced Audio Codec
Format profile : LC
Codec ID : 40
Duration : 22mn 55s
Bit rate mode : Constant
Bit rate : 192 Kbps
Channel count : 2 channels
Channel positions : Front: L R
Sampling rate : 48.0 KHz
Compression mode : Lossy
Stream size : 31.5 MiB (4%)
Language : English
Encoded date : UTC 2014-07-17 12:45:21
Tagged date : UTC 2014-07-17 12:45:21

Added2015-03-16 16:18:26
Size772.22 MB (809,733,541 bytes)
Num files2 files