Taken down by DMCA request

[Butch Dixon - Sergio Moreno and Mario Domenech

CategoryHunks
Download
You need to Login or Signup first.
DescriptionGeneral
Complete name                  : F:1080新建文件夹 (2)[Butch Dixon - Sergio Moreno and Mario Domenech - 2016.07.17.mp4
Format                        : MPEG-4
Format profile                : Base Media / Version 2
Codec ID                      : mp42 (mp42/isom/avc1)
File size                      : 858 MiB
Duration                      : 26 min
Overall bit rate mode          : Variable
Overall bit rate              : 4 500 kb/s
Genre                          : Action
ContentType                    : Short Film
Encoded date                  : UTC 2016-07-14 22:57:26
Tagged date                    : UTC 2016-07-16 14:31:46
Writing application            : Sorenson Squeeze
Comment                        : Encoded by James Harrington

Video
ID                            : 2
Format                        : AVC
Format/Info                    : Advanced Video Codec
Format profile                : High@L4
Format settings, CABAC        : No
Format settings, ReFrames      : 3 frames
Codec ID                      : avc1
Codec ID/Info                  : Advanced Video Coding
Duration                      : 26 min
Bit rate mode                  : Variable
Bit rate                      : 4 234 kb/s
Maximum bit rate              : 6 720 kb/s
Width                          : 1 280 pixels
Height                        : 720 pixels
Display aspect ratio          : 16:9
Frame rate mode                : Variable
Frame rate                    : 29.970 (30000/1001) FPS
Minimum frame rate            : 29.970 FPS
Maximum frame rate            : 30.000 FPS
Standard                      : NTSC
Color space                    : YUV
Chroma subsampling            : 4:2:0
Bit depth                      : 8 bits
Scan type                      : Progressive
Bits/(Pixel*Frame)            : 0.153
Stream size                    : 808 MiB (94%)
Encoded date                  : UTC 2016-07-14 22:57:26
Tagged date                    : UTC 2016-07-14 22:57:26
Color range                    : Limited
Color primaries                : BT.709
Transfer characteristics      : BT.709
Matrix coefficients            : BT.709

Audio
ID                            : 1
Format                        : AAC
Format/Info                    : Advanced Audio Codec
Format profile                : LC
Codec ID                      : 40
Duration                      : 26 min
Bit rate mode                  : Constant
Bit rate                      : 256 kb/s
Channel(s)                    : 2 channels
Channel positions              : Front: L R
Sampling rate                  : 44.1 kHz
Frame rate                    : 43.066 FPS (1024 spf)
Compression mode              : Lossy
Stream size                    : 48.8 MiB (6%)
Encoded date                  : UTC 2016-07-14 22:57:26
Tagged date                    : UTC 2016-07-14 22:57:26

Other #1
ID                            : 3
Type                          : Scene description
Format                        : System Core
Codec ID                      : 2
Duration                      : 26 min
Encoded date                  : UTC 2016-07-14 22:57:33
Tagged date                    : UTC 2016-07-14 22:57:33

Other #2
ID                            : 4
Type                          : Object description
Format                        : System
Codec ID                      : 1
Duration                      : 26 min
Encoded date                  : UTC 2016-07-14 22:57:33
Tagged date                    : UTC 2016-07-14 22:57:33

Added2016-07-31 10:37:21
Size858.26 MB (899,946,353 bytes)
Views84
Num files1 files
Pictures