Taken down by DMCA request

[NextDoorBuddies] The Foreign Stud – Arad & Ace Stone

CategoryHunks
Download
You need to Login or Signup first.
Description"New trainer Arad is a head turner, without a doubt. With ripped muscles and a gigantic chest, this Greek Adonis should have no trouble getting clients, but for some reason he's having a hard time adjusting to the new atomosphere. Long time staffer Ace Stone tells Arad that he has everything it takes to be successful, but he just needs to get a little more comfortable around with his surroundings, and mingle a little more among the staff.
Arad thinks he has an idea what Ace means by mingle, but just in case there was any confusion getting lost in translation, Ace grabs Arad's package and cups his balls, feeling his cock underneath Arad's underwear. Arad feels a rush of blood to his cock and raises his eyebrow in a knowing gesture, as Ace falls to his knees, pulling Arad's shorts down as he runs his hands up Arad's rippling body. Ace takes Arad into his mouth, sucking him hard and turning him around, plunging his face deep into Arad's crevice and tonguing his hole, before Arad returns the favor, moistening up Ace for his thick cock.
Arad bends Ace over a bench and fucks him like his job depended on it, grabbing Ace by the waist as he pounds him from behind, then moving him to the floor and reverse fucking him from behind, as Ace stares at himself in the mirror, watching Arad's hips pump him full of hard dick.
Ace mounts Arad and rides him reverse as he strokes himself off, cumming all over the floor before dismounting and letting Arad blast his face with his hot load. Wiping off, Ace promises Arad a bounty of client work, provided he can maintain his stamina.Arad lifts his eyebrow in a knowing reply.

Enjoy!"



Format                                  : MPEG-4
Format profile                          : Base Media
Codec ID                                : isom
File size                                : 521 MiB
Duration                                : 37mn 7s
Overall bit rate mode                    : Variable
Overall bit rate                        : 1 963 Kbps
Encoded date                            : UTC 1970-01-01 00:00:00
Tagged date                              : UTC 1970-01-01 00:00:00
Writing application                      : Lavf52.93.0

Video
ID                                      : 1
Format                                  : AVC
Format/Info                              : Advanced Video Codec
Format profile                          : High@L3.1
Format settings, CABAC                  : Yes
Format settings, ReFrames                : 4 frames
Codec ID                                : avc1
Codec ID/Info                            : Advanced Video Coding
Duration                                : 37mn 7s
Bit rate                                : 1 800 Kbps
Width                                    : 960 pixels
Height                                  : 544 pixels
Display aspect ratio                    : 16:9
Frame rate mode                          : Constant
Frame rate                              : 29.970 fps
Color space                              : YUV
Chroma subsampling                      : 4:2:0
Bit depth                                : 8 bits
Scan type                                : Progressive
Bits/(Pixel*Frame)                      : 0.115
Stream size                              : 479 MiB (92%)
Writing library                          : x264 core 107
Encoding settings                        : cabac=1 / ref=3 / deblock=1:0:0 / analyse=0x3:0x113 / me=umh / subme=6 / psy=1 / psy_rd=1.00:0.00 / mixed_ref=1 / me_range=16 / chroma_me=1 / trellis=0 / 8x8dct=1 / cqm=0 / deadzone=21,11 / fast_pskip=1 / chroma_qp_offset=-2 / threads=1 / sliced_threads=0 / nr=0 / decimate=1 / interlaced=0 / constrained_intra=0 / bframes=2 / b_pyramid=2 / b_adapt=2 / b_bias=0 / direct=2 / weightb=1 / open_gop=0 / weightp=0 / keyint=30 / keyint_min=16 / scenecut=0 / intra_refresh=0 / rc_lookahead=30 / rc=abr / mbtree=1 / bitrate=1800 / ratetol=1.0 / qcomp=0.60 / qpmin=1 / qpmax=31 / qpstep=4 / ip_ratio=1.41 / aq=1:1.00
Encoded date                            : UTC 1970-01-01 00:00:00
Tagged date                              : UTC 1970-01-01 00:00:00

Audio
ID                                      : 2
Format                                  : AAC
Format/Info                              : Advanced Audio Codec
Format profile                          : LC
Codec ID                                : 40
Duration                                : 37mn 7s
Bit rate mode                            : Variable
Bit rate                                : 152 Kbps
Channel(s)                              : 2 channels
Channel positions                        : Front: L R
Sampling rate                            : 44.1 KHz
Compression mode                        : Lossy
Stream size                              : 40.3 MiB (8%)
Encoded date                            : UTC 1970-01-01 00:00:00
Tagged date                              : UTC 1970-01-01 00:00:00



Added2015-09-10 12:42:46
Size521.25 MB (546,570,745 bytes)
Views0
Num files1 files
Pictures