♺ HairyAndRaw - Backdoor Bare

CategoryBears
Download
You need to Login or Signup first.
DescriptionOriginal upload: 2013-01-30 |
Sexy superstar Clint Taylor makes his cumback in
"Backdoor Bare" with a mix of 9 other HOT guys who area
always ready to "bring up the rear." When these boys knock,
someone is ready to cum right in!

Cast:  Clint Taylor, Rafael Lambert, Maximus O'Connell,
Mac Brody, David Rios, Leo Stone, DJ Russo, Tony Rivera,
Tyler Ruger.

Format                                  : AVI
Format/Info                              : Audio Video Interleave
Format profile                          : OpenDML
File size                                : 1.34 GiB
Duration                                : 1h 31mn
Overall bit rate mode                    : Variable
Overall bit rate                        : 2 106 Kbps
Writing application                      : MEncoder r33883
Writing library                          : MPlayer

Video
ID                                      : 0
Format                                  : MPEG-4 Visual
Format profile                          : Simple@L1
Format settings, BVOP                    : No
Format settings, QPel                    : No
Format settings, GMC                    : No warppoints
Format settings, Matrix                  : Default (H.263)
Codec ID                                : DIVX
Codec ID/Info                            : Project Mayo
Codec ID/Hint                            : DivX 4
Duration                                : 1h 31mn
Bit rate                                : 1 999 Kbps
Width                                    : 856 pixels
Height                                  : 480 pixels
Display aspect ratio                    : 16:9
Frame rate                              : 30.000 fps
Color space                              : YUV
Chroma subsampling                      : 4:2:0
Bit depth                                : 8 bits
Scan type                                : Progressive
Compression mode                        : Lossy
Bits/(Pixel*Frame)                      : 0.162
Stream size                              : 1.27 GiB (95%)
Writing library                          : Lavc53.8.0

Audio
ID                                      : 1
Format                                  : MPEG Audio
Format version                          : Version 1
Format profile                          : Layer 3
Mode                                    : Joint stereo
Mode extension                          : MS Stereo
Codec ID                                : 55
Codec ID/Hint                            : MP3
Duration                                : 1h 31mn
Bit rate mode                            : Variable
Bit rate                                : 91.1 Kbps
Channel(s)                              : 2 channels
Sampling rate                            : 44.1 KHz
Compression mode                        : Lossy
Stream size                              : 59.4 MiB (4%)
Alignment                                : Aligned on interleaves
Interleave, duration                    : 26 ms (0.78 video frame)
Interleave, preload duration            : 426 ms
Added2015-11-15 16:43:09
Size1.34 GB (1,439,531,006 bytes)
Views1927
Num files1 files
Pictures