BAO – Luke Hamill & Jean-Daniel Chagall, Bareback

CategoryBareback
Download
You need to Login or Signup first.
DescriptionGiven Luke's role in directing, it doesn't leave him with much time these days to step in front of the camera. Luckily, there's this earlier scene, from the days when Luke was more the model than the producer. Jean-Daniel is his lucky partner in this scene. I say lucky, as Luke is rated as one of the best lovers, in porn, today.

Released: Feb 16, 2014
Format: mp4
Size: 606 MB
Resolution: 960×544
Duration: 00:18:15

================Technical Details================
[General] Complete name : BAO-LukeHamill-JeanDaniel.mp4
Format : MPEG-4
Format profile : Base Media
Codec ID : isom
File size : 606 MiB
Duration : 18mn 15s
Overall bit rate mode : Variable
Overall bit rate : 4 642 Kbps
Writing application : Lavf52.64.2

[Video] ID : 1
Format : MPEG-4 Visual
Format profile : Simple@L1
Format settings, BVOP : No
Format settings, QPel : No
Format settings, GMC : No warppoints
Format settings, Matrix : Default (H.263)
Codec ID : 20
Duration : 18mn 15s
Bit rate : 4 573 Kbps
Width : 960 pixels
Height : 544 pixels
Display aspect ratio : 16:9
Frame rate mode : Constant
Frame rate : 25.000 fps
Color space : YUV
Chroma subsampling : 4:2:0
Bit depth : 8 bits
Scan type : Progressive
Compression mode : Lossy
Bits/(Pixel*Frame) : 0.350
Stream size : 597 MiB (99%)
Writing library : Lavc52.72.2

[Audio] ID : 2
Format : AAC
Format/Info : Advanced Audio Codec
Format profile : LC
Codec ID : 40
Duration : 18mn 15s
Bit rate mode : Variable
Bit rate : 64.2 Kbps
Channel count : 2 channels
Channel positions : Front: L R
Sampling rate : 48.0 KHz
Compression mode : Lossy
Stream size : 8.38 MiB (1%)
Added2014-05-02 17:24:26
Size606.21 MB (635,659,806 bytes)
Views4
Num files1 files
Pictures