Guys Gone Wild - Pool Party (HQ)

Hunks
You need to Login or Signup first.
Guys Gone Wild: Pool Party Platinum Edition

From blonde and blue-eyed surfer boys visiting Acapulco,
to pierced and shaved coeds; from rodeo-style bedroom
techniques to the hottest wrestling matches, our latest Guys
Gone Wild is definitely the best yet! AND it�s all real, uncut
and completely uncensored!

Jump into the Pool Party!

Format                          : MPEG-4
Format profile                  : Base Media
Codec ID                        : isom
File size                        : 1.69 GiB
Duration                        : 57mn 32s
Overall bit rate                : 4 200 Kbps
Movie name                      : Guys Gone Wild - Pool Party
Album                            : POOL_PARTY
Encoded date                    : 2010
Writing application              : Lavf52.33.0

Video
ID                              : 1
Format                          : AVC
Format/Info                      : Advanced Video Codec
Format profile                  : [email protected]
Format settings, CABAC          : No
Format settings, ReFrames        : 1 frame
Codec ID                        : avc1
Codec ID/Info                    : Advanced Video Coding
Duration                        : 57mn 32s
Bit rate mode                    : Variable
Bit rate                        : 4 005 Kbps
Width                            : 600 pixels
Height                          : 454 pixels
Display aspect ratio            : 4:3
Frame rate mode                  : Constant
Frame rate                      : 29.970 fps
Color space                      : YUV
Chroma subsampling              : 4:2:0
Bit depth                        : 8 bits
Scan type                        : Progressive
Bits/(Pixel*Frame)              : 0.491
Stream size                      : 1.61 GiB (95%)

Audio
ID                              : 2
Format                          : AAC
Format/Info                      : Advanced Audio Codec
Format version                  : Version 4
Format profile                  : LC
Format settings, SBR            : No
Codec ID                        : 40
Duration                        : 57mn 32s
Bit rate mode                    : Variable
Bit rate                        : 192 Kbps
Channel(s)                      : 6 channels
Channel positions                : Front: L C R, Side: L R, LFE
Sampling rate                    : 48.0 KHz
Stream size                      : 78.2 MiB (5%)
2010-08-03 17:59:47
1.69 GB (1,812,922,540 bytes)
2932
3 files