FM - Louis Ricaute & Henrique

CategoryAnal
Download
You need to Login or Signup first.
DescriptionGeneral
Complete name              : FM - Louis Ricaute & Henrique.mp4
Format                      : MPEG-4
Codec ID                    : M4V  (M4V /mp42/isom)
File size                  : 808 MiB
Duration                    : 22mn 7s
Overall bit rate mode      : Variable
Overall bit rate            : 5 105 Kbps
Encoded date                : UTC 2015-12-23 21:08:54
Tagged date                : UTC 2015-12-23 21:09:02
©TIM                        : 00;00;00;00
©TSC                        : 30000
©TSZ                        : 1001

Video
ID                          : 1
Format                      : AVC
Format/Info                : Advanced Video Codec
Format profile              : Main@L4.1
Format settings, CABAC      : No
Format settings, ReFrames  : 2 frames
Codec ID                    : avc1
Codec ID/Info              : Advanced Video Coding
Duration                    : 22mn 7s
Bit rate                    : 4 908 Kbps
Width                      : 1 280 pixels
Height                      : 720 pixels
Display aspect ratio        : 16:9
Frame rate mode            : Constant
Frame rate                  : 29.970 (30000/1001) fps
Standard                    : NTSC
Color space                : YUV
Chroma subsampling          : 4:2:0
Bit depth                  : 8 bits
Scan type                  : Progressive
Bits/(Pixel*Frame)          : 0.178
Stream size                : 777 MiB (96%)
Language                    : English
Encoded date                : UTC 2015-12-23 21:08:54
Tagged date                : UTC 2015-12-23 21:08:54
Color range                : Limited
Color primaries            : BT.709
Transfer characteristics    : BT.709
Matrix coefficients        : BT.709

Audio
ID                          : 2
Format                      : AAC
Format/Info                : Advanced Audio Codec
Format profile              : LC
Codec ID                    : 40
Duration                    : 22mn 7s
Source duration            : 22mn 7s
Bit rate mode              : Variable
Bit rate                    : 192 Kbps
Maximum bit rate            : 295 Kbps
Channel(s)                  : 2 channels
Channel positions          : Front: L R
Sampling rate              : 48.0 KHz
Frame rate                  : 46.875 fps (1024 spf)
Compression mode            : Lossy
Stream size                : 30.0 MiB (4%)
Source stream size          : 30.0 MiB (4%)
Language                    : English
Encoded date                : UTC 2015-12-23 21:08:54
Tagged date                : UTC 2015-12-23 21:08:54
Added2016-06-02 23:28:10
Size808.10 MB (847,358,489 bytes)
Views74
Num files1 files
Pictures