Taken down by DMCA request

Night Flight - Falcon pre-condom Classic (O G Johnson, Joe Gere, Buster)

CategoryVintage
Download
You need to Login or Signup first.
DescriptionNight Flight
Take the ride of your life in this non-stop action winner of the 1986 Gay Producer's Association Award. Flying Sky America tonight are some of the hottest, horniest studs on both coasts. Ignore the ""occupied"" sign and check out the plane's lavatory. That's where the action is! Once you're on the ground at SFO, you'll want to tag along with Captain Joe and Steward Mel to baggage Lost and Found. Tall, handsome Leigh Erikson can be very helpful when it comes to straightening out passengers' biggest problems. He's got a drawer full of solutions! Kurt's had a long wait - keeping the homefires burning--but it's worth it once his flyboy lover finally lands in their bed. That is, until an uninvited visitor arrives at dawn and Joe is forced to put his asshole where his mouth was earlier!

Director:Bill Clayton
Studio:Falcon Studios
Full Cast: Buster, O G Johnson, Mark Miller, Ron Pearson, Melchor, Leigh Erickson, Joe Gere, and Kurt Marshal

General
Complete name: Night Flight - Falcon pre-condom Classic (O. G. Johnson, Joe Gere, Buster).mp4
Format: MPEG-4
Format profile: Base Media
Codec ID: isom
File size: 520 MiB
Duration: 1h 10mn
Overall bit rate mode: Variable
Overall bit rate: 1 033 Kbps
Movie name: Night Flight
Genre: Independent
ContentType: Short Film
Encoded date: UTC 2012-10-30 23:57:38
Tagged date: UTC 2012-11-11 21:37:05
Cover: Yes

Video
ID: 2
Format: AVC
Format/Info: Advanced Video Codec
Format profile: Baseline@L3
Format settings, CABAC: No
Format settings, ReFrames: 1 frame
Codec ID: avc1
Codec ID/Info: Advanced Video Coding
Duration: 1h 10mn
Bit rate: 900 Kbps
Width: 352 pixels
Height: 264 pixels
Display aspect ratio: 4:3
Frame rate mode: Constant
Frame rate: 30.000 fps
Color space: YUV
Chroma subsampling: 4:2:0
Bit depth: 8 bits
Scan type: Progressive
Bits/(Pixel*Frame): 0.323
Stream size: 453 MiB (87%)
Writing library: @V6
Language: English

Audio
ID: 1
Format: AAC
Format/Info: Advanced Audio Codec
Format profile: LC
Codec ID: 40
Duration: 1h 10mn
Bit rate mode: Variable
Bit rate: 128 Kbps
Maximum bit rate: 218 Kbps
Channel(s): 2 channels
Channel positions: Front: L R
Sampling rate: 44.1 KHz
Compression mode: Lossy
Stream size: 64.4 MiB (12%)
Language: English
Added2015-11-08 20:05:42
Size519.93 MB (545,190,576 bytes)
Views0
Num files1 files
Pictures