♺ OTB Video - XXXtreme Twinks - Wilson, Duval & Ivan

You need to Login or Signup first.
DescriptionOriginal upload: 2010-06-07 |
Three HOT horny Latino twinks CUM 6 times, in extreme intense bareback sex! Includes a 3-way fuck sandwich, snowballing, foot worship, spanking, oral facials, rimming, fucking, sucking and more. OMG! Bonus Points Appreciated!
Title: Wilson, Duval, Ivano
Studio: OTB
Label: XXXtreme.com (Downloaded Video from this former site)
Duration: 27 minutes
Personal Note:
Although I usually am converting DVDs into High Quality Xvid videos, occasionally I make an exception... for exceptional videos. And this video qualifies, big time, FIVE stars; EXCEPTIONAL!

Originally a 6 part download from the now defunct XXXtreme.com website of OTB, in .wmv format.
It was in fairly decent video resolution and quality, so I decided to decompress and convert the .wmv to Xvid .avi format, edit the parts together, and eliminate the joining ("part 2", "part 3") graphics, to create one HOT(!) contiguous video scene.

This is a fresh conversion I just created from the original .wmv files, deinterlaced, and sharpened, just a tad. The conversion was performed by uncompressing the .wmv files (to a whopping 43 gigabytes!), then re-encoding, using the Xvid codec in 2-pass mode, first to detect motion, then to utilize Variable Bit Rate Xvid Encoding (based on detail and motion) for the most efficient Video Compression, achieving a uniform level of good quality; PLUS MP3 audio, resulting in the most reasonable file size posible, considering the quality. This video has a Gspot Qf (Quality Factor) of .242, for the best quality possible, considering the source. Enjoy!

Any bonus points that you can afford to grant me for my efforts would be greatly appreciated! In as I'm usually downloading DVDs to convert, process, and perhaps color correct, to offer here, I struggle to maintain my UL/DL ratio; and your gift would certainly help me, in this regard. Thanks!
Multimedia Analysis of:  [OTB - XXXtreme Twinks] Wilson-Duval-Ivano.avi
Complete name : [OTB - XXXtreme Twinks] Wilson-Duval-Ivano.avi
Format : AVI
Format/Info : Audio Video Interleave
File size : 438 MiB
Duration : 27mn 24s
Overall bit rate : 2 232 Kbps
Director : created.with.SUPER(C).v2010.bld.38
Writing application : VirtualDubMod (build 2542/release)
Writing library : VirtualDubMod build 2542/release

Video  ID : 0
Format : MPEG-4 Visual
Format profile : Advanced Simple@L5
Format settings, BVOP : Yes
Format settings, QPel : No
Format settings, GMC : No warppoints
Format settings, Matrix : Default (MPEG)
Muxing mode : Packed bitstream
Codec ID : XVID
Codec ID/Hint : XviD
Duration : 27mn 24s
Bit rate : 2 094 Kbps
Width : 720 pixels
Height : 480 pixels
Display aspect ratio : 4:3
Frame rate : 25.000 fps
Standard : NTSC
Resolution : 8 bits
Colorimetry : 4:2:0
Scan type : Progressive
Bits/(Pixel*Frame) : 0.242
Stream size : 411 MiB (94%)
Writing library : XviD 1.2.1 (UTC 2008-12-04)

Audio  ID : 1
Format : MPEG Audio
Format version : Version 1
Format profile : Layer 3
Mode : Joint stereo
Format_Settings_ModeExtension : MS Stereo
Codec ID : 55
Codec ID/Hint : MP3
Duration : 27mn 23s
Bit rate mode : Constant
Bit rate : 128 Kbps
Channel(s) : 2 channels
Sampling rate : 44.1 KHz
Stream size : 25.1 MiB (6%)
Alignment : Split accross interleaves
Interleave, duration : 40 ms (1.00 video frame)
Interleave, preload duration : 500 ms
Writing library : LAME3.98.2

~bareback ~Sandwich Fuck ~Foot Fetish ~spanking ~snowballing
Added2015-09-15 17:31:13
Size437.84 MB (459,111,189 bytes)
Num files2 files