Rascal Video - Stuff It In The Hole : Take One For The Team 2

You need to Login or Signup first.
DescriptionChi Chi LaRue really takes one for the team in her sequel Stuff it in the Hole: Take One for the Team 2! This movie features jocks and twinks alike, Braxton Smith, Javier Cruz, Nicko Styles, Mickey O’Brien, Juniee Andrews, and Christian Leal. It’s always so nice to boost the morale of your teammates, especially when it’s with a hot blowjob or a hard cock up the ass! You won’t want to miss Take One for the Team 2!"

Scene 1: Braxton Smith and Javier Cruz are practicing for their up and coming wrestling match with their rival team. They both figured they would get a leg up on the other team if they had a friendly spare between each other, but a leg isn’t the only thing they get up. Things get a little hot and heavy as Cruz has Smith pinned to the mat and begins passionately kissing him. The match really heats up as their singlets slip off and the boys get down to fuckin’. Thank god the ref wasn’t there to stop this match anytime soon.

Scene 2: Nicko Styles and Mickey O’Brien are showering off after basketball practice. These two young, lean, and smooth twinks can’t help but notice each other’s bodies and begin to explore. Have you ever gotten out of the shower dirtier than when you went in? After working up a sweat during practice, these two young lads definitely needed a release, besides, what are team mates for?

Scene 3: Juniee Andrews and Christian Leal are hanging out in the locker room after baseball practice. The ace pitcher and the power hitter are left to clean up and leave. The sexual tension between the two best players have been heating up all season, and finally off the field they can try a few backdoor sliders of their own. Now this is a pickle every team mate can enjoy!

Studio: Rascal Video

Director: Chi Chi LaRue

Cast: Juniee Andrews, Javier Cruz, Nicko Styles, Christian Leal, Braxton Smith, and Mickey O'Brien

Format                                  : MPEG-4
Format profile                          : Base Media
Codec ID                                : isom
File size                                : 251 MiB
Duration                                : 1h 13mn
Overall bit rate mode                    : Variable
Overall bit rate                        : 477 Kbps
Writing application                      : Lavf53.21.1

ID                                      : 1
Format                                  : AVC
Format/Info                              : Advanced Video Codec
Format profile                          : Main@L2.2
Format settings, CABAC                  : Yes
Format settings, ReFrames                : 3 frames
Codec ID                                : avc1
Codec ID/Info                            : Advanced Video Coding
Duration                                : 1h 13mn
Bit rate                                : 437 Kbps
Width                                    : 640 pixels
Height                                  : 360 pixels
Display aspect ratio                    : 16:9
Frame rate mode                          : Constant
Frame rate                              : 15.000 fps
Color space                              : YUV
Chroma subsampling                      : 4:2:0
Bit depth                                : 8 bits
Scan type                                : Progressive
Bits/(Pixel*Frame)                      : 0.127
Stream size                              : 230 MiB (92%)
Writing library                          : x264 core 123 r2189 35cf912

ID                                      : 2
Format                                  : AAC
Format/Info                              : Advanced Audio Codec
Codec ID                                : 40
Duration                                : 1h 13mn
Bit rate mode                            : Variable
Bit rate                                : 36.7 Kbps
Channel(s)                              : 2 channels
Sampling rate                            : 22.05 KHz
Compression mode                        : Lossy
Delay relative to video                  : -1ms
Stream size                              : 19.3 MiB (8%)
Added2016-08-22 16:50:44
Size251.16 MB (263,359,451 bytes)
Num files1 files