♺ [SAR] Rudy Valentino and Marc Rushmore 720p

CategoryBareback
Download
You need to Login or Signup first.
DescriptionOriginal upload: 2014-04-09 |
Rudy Valentino is on the couch when buddy Marc Rushmore walks in. The two are instantly at each other, kissing and making out. Marc wastes little time in releasing his erection and soon has Rudy's cock out as well. He teases the head before taking the uncut dick into his mouth. Rudy and Marc are soon naked and rubbing their cocks together. They take turns face fucking each other but Marc is in the mood for a piece of ass. Licking, rimming, and fingering Rudy's sweet pink fuckhole, Marc then mounts him, penetrating the tightly puckered starburst and fucking Rudy bareback. The raw top takes complete ownership of the bottom's hungry ass, stuffing and filling Rudy full of cock until he's ready to explode. He lets loose with a huge load of thick cream, spraying it all over Rudy's ass before spinning him around, sitting him down, and stroking him to climax.
Featuring: Marc Rushmore ,  Rudy Valentino
Released:  Apr 08, 2014
Duration: 26 Min.
=============Technical================
[General] Complete name : N:_UploadsSweetAndRaw - Marc Rushmore & Rudy Valentino (Bareback)SAR-MarcRushmore-RudyValentino.mp4
Format : MPEG-4
Format profile : Base Media / Version 2
Codec ID : mp42
File size : 394 MiB
Duration : 25mn 49s
Overall bit rate mode : Variable
Overall bit rate : 2 133 Kbps
Movie name : SAR-MarcRushmore-RudyValentino.mp4
Recorded date : 0
Encoded date : UTC 2014-03-17 14:40:06
Tagged date : UTC 2014-03-17 18:40:59
Writing application : Sorenson Squeeze

[Video] ID : 2
Format : AVC
Format/Info : Advanced Video Codec
Format profile : Baseline@L3.2
Format settings, CABAC : No
Format settings, ReFrames : 3 frames
Format settings, GOP : M=1, N=30
Codec ID : avc1
Codec ID/Info : Advanced Video Coding
Duration : 25mn 49s
Bit rate mode : Variable
Bit rate : 2 000 Kbps
Maximum bit rate : 3 200 Kbps
Width : 1 280 pixels
Height : 720 pixels
Display aspect ratio : 16:9
Frame rate mode : Variable
Frame rate : 29.970 fps
Minimum frame rate : 29.970 fps
Maximum frame rate : 30.000 fps
Standard : NTSC
Color space : YUV
Chroma subsampling : 4:2:0
Bit depth : 8 bits
Scan type : Progressive
Bits/(Pixel*Frame) : 0.072
Stream size : 369 MiB (94%)
Encoded date : UTC 2014-03-17 14:40:06
Tagged date : UTC 2014-03-17 14:40:06

[Audio] ID : 1
Format : AAC
Format/Info : Advanced Audio Codec
Format profile : LC
Codec ID : 40
Duration : 25mn 49s
Bit rate mode : Constant
Bit rate : 128 Kbps
Channel count : 2 channels
Channel positions : Front: L R
Sampling rate : 48.0 KHz
Compression mode : Lossy
Stream size : 23.6 MiB (6%)
Encoded date : UTC 2014-03-17 14:40:06
Tagged date : UTC 2014-03-17 14:40:06

Added2016-11-24 18:38:11
Size395.17 MB (414,369,019 bytes)
Views139
Num files5 files
Pictures