♺ Birlynn - Golden Athletes - Bareback Thai Twinks Wrestling

CategoryAsian
Download
You need to Login or Signup first.
DescriptionOriginal upload: 2009-12-20 |

ALL BAREBACK, CUTE Thai "Boys" wrestling, fucking, double coming, with finger-play and intense suck-off action.

The final scene begins with an intense wrestling scene, both boys trying, for a LONG time, to rip the jock strap off the other!!! Both end up bonding, with raging hard-ons by the time the stronger Thai wins... leading to mindfuckingly hot bareback fuck session. One of my all time favorite Thai-boy sex scenes, from one of my favorite directors, Birlynn Young.

This film is notable, also, for Birlynn Young's experimental camera work, along with experimental video editing and speed changes.

Personal Note: Don't let the DVD cover fool you; the Thai boys in this video are MUCH cuter than these three performers...!!!

This video has been kicking around the internet for some time, but usually in very poor resolution, with washed out color. This particular copy was of pretty good quality(!), so I took the time re-encode at a very high bit rate, correcting the color balance all the scenes individually, and deleting the final 15 minutes of promotional video.

I hope you enjoy this video as much as I have in the past, and still do.

Naturally, bonus points are always gratefully accepted, sorely needed, and greatly appreciated!  ;P

Title: Golden Athletes

Distributor: Birlynn Productions

Year Released: 2004

Length (minus trailing promo material): 1 hour, 46 minutes

Director: Birlynn Young

Producer: Birlynn Young

Studio: Birlynn Productions

Performers:
Allen Ward
Mitch Chang
Paul Rice
Pierce Tracey
Rock Lynch
Sean Macey
Sloane Banks
Stone Silver
Xing Starr

Promo/Description promotional material:
This video that introduces Xing Starr, can only be described as RED HOT. Young men, all over 18 entice and excite one another (and you!) in the world of working out and Hot Sex! All men top... or do they? As situations change and camera angles change, so do their positions!!! Wrestling, double coming, finger-play and intense suck-off action. Sure to please! A must see for all those interested in hot up and coming new Asian stars.

Detailed Technical Information:
Complete name : Birlynn Productions - Golden Athletes.avi
Format : AVI
Format/Info : Audio Video Interleave
File size : 1.22 GiB
Duration : 1h 46mn
Overall bit rate : 1 643 Kbps
Writing library : Boilsoft AVI tool build 1/release

Video  Format : MPEG-4 Visual
Format profile : Simple@L3
Format settings, BVOP : Yes
Format settings, QPel : No
Format settings, GMC : No warppoints
Format settings, Matrix : Default (H.263)
Codec ID : XVID
Codec ID/Hint : XviD
Duration : 1h 46mn
Bit rate : 1501 Kbps
Width : 640 pixels
Height : 480 pixels
Display aspect ratio : 4/3
Frame rate : 29.970 fps
Resolution : 24 bits
Scan type : Progressive
Bits/(Pixel*Frame) : 0.163
Stream size : 1.12 GiB (91%)

Audio  Format : MPEG Audio
Format version : Version 1
Format profile : Layer 3
Codec ID : 55
Codec ID/Hint : MP3
Duration : 1h 46mn
Bit rate mode : Constant
Bit rate : 128 Kbps
Channel(s) : 2 channels
Sampling rate : 44.1 KHz
Resolution : 16 bits
Stream size : 97.4 MiB (8%)
Alignment : Aligned on interleaves
Interleave, duration : 26 ms (0.78 video frame)
Interleave, preload duration : 521 ms
Writing library : LAME3.97
Added2016-04-20 08:19:05
Size1.22 GB (1,314,166,404 bytes)
Views1978
Num files1 files
Pictures