♺ NEW Samson FatDaddy (white chubs)

CategoryChubbies
Download
You need to Login or Signup first.
DescriptionOriginal upload: 2010-04-12 |
This fatdaddy is really a hot chub with eager ass.
Listen to his moaning while anal sex!

Video Display aspect ratio have to be 4:3,640x480
Company: 淺草男店

Video
      Format : MPEG-PS
      File size : 1.11 GiB
      Duration : 56mn 49s
      Overall bit rate : 2 788 Kbps
      Format version : Version 2
      Format profile : Main@Main
      Format settings, BVOP : Yes
      Format settings, Matrix : Default
      Duration : 56mn 49s
      Bit rate mode : Constant
      Bit rate : 2 454 Kbps
      Nominal bit rate : 2 376 Kbps
      Width : 480 pixels
      Height : 480 pixels
      Display aspect ratio : 4:3
      Frame rate : 29.970 fps
      Standard : NTSC
      Resolution : 8 bits
      Colorimetry : 4:2:0
      Scan type : Interlaced
      Scan order : Bottom Field First
      Bits/(Pixel*Frame) : 0.355
      Stream size : 997 MiB (88%)
  Audio #192
      ID : 192 (0xC0)
      Format : MPEG Audio
      Format version : Version 1
      Format profile : Layer 2
      Duration : 56mn 48s
      Bit rate mode : Constant
      Bit rate : 224 Kbps
      Channel(s) : 2 channels
      Sampling rate : 44.1 KHz
      Stream size : 91.0 MiB (8%)
Added2016-08-02 16:18:08
Size1.11 GB (1,188,361,132 bytes)
Views4719
Num files1 files
Pictures