♺ Latbocon - Libertine Boys (Duos)

CategoryBareback
Download
You need to Login or Signup first.
DescriptionOriginal upload: 2010-06-18 |
~High Quality

~Bareback

~Latinio Twinks

~From former OTB Director Roberto Escorda!

4 scenes of bareback Latinos duos in scorching perversions, including fisting, face slapping, anal beads, hammer-dildo, shoe licking/smelling/cock-massage, licking cum off the floor, blindfolds, bondage, foot licking, spanking, finger fucking, pissing, ass stretching, and lit cigarettes inserted anally, in addition to the more pedestrian sucking, rimming, hard fucking, oral/facial orgasms, snowballing, ass play, seeding, dildos and smoking cigarettes.

Stay tuned at the very end! I've added the DVD-BONUS Slide show, after the fourth scene.
------------------------------------
Personal note: Make no mistake about it, this is NOT your father's "romantic" Lationo (OTB-style) sex video. It's clearly over-the-top in terms of being far beyond the common customary vanilla Latino sex video, so be forewarned. I've posted it in the Fetish section, for good reason.

Back in February, OTB announced that Director/Videographer Roberto Escorda and Latbocon (formerly in partnership with OTB) were parting ways. Escorda had created all of the "XXXtreme.com" and "Dirty ..." series of OTB videos. Clearly Escorda's direction is toward the "extreme" (fetish) direction, (as opposed to OTB's more gentle subdued nature) as "Libertine Boys" demonstrates.

But to be perfectly clear, these are 8 HOT cute Latino twinks, and the sex is sizzling! If I edited out about 1/5 of the video content, it would look just like your standard, excellent OTB realease. Since we can only post 10 photos in the torrents we offer here, I've posted 7 of the excentric scenes.

However, the thumbnail pictures shown here (and "thumbs.jpg" in the torrent) were automatically captured, and thus, happened to miss most all of the kinky stuff, and as such, makes this video look pretty vanilla OTB-ish.

SO I ALSO hand-captured 127 scenes from the movie, showing the hottest sexual shots, and ALL of the kinky stuff. This file is included in the torrent too, as "full thumbs.jpg". You might want to download just this file first, and take a look at it, if you're undecided about whether or not to download the entire movie. This way you get to make an educated decision, and the choice is up to you.

The original 9 GB DVD contained 8 scenes, of almost 4 hours duration.
THIS VIDEO contains the first 4 scenes, which are all Duos.

The second group of 4 scenes are all SOLOs, starring Alonso Nader, Adul Abaunza, Cesar Yolombo, and Alfredo Guiral, and will be posted as a separate video, in the SOLOs section at this torrent site, soon.

This is a fresh edited conversion I just created from the original DVD files, sharpened slightly. The three-pass conversion was performed by first decompressing the DVD files to a whopping 255 GB (for just the DUOs videos!) to a nonencoded binary format. Next, these files were joined and edited, then analyzed, recording the amount of picture detail and movement data, frame by frame. The audio was then extracted, and converted to MP3 format. Thirdly, the video is finally reencoded, using the 2-pass mode of the Xvid codec, in Variable Bit Rate, using the detail and motion data for the most efficient degree of Video Compression, while achieving a uniform crisp  appearance to the human eye. Lastly, the MP3 audio was merged with the video again, resulting in the most reasonable file size posible, considering the quality. This particular video has a Gspot Qf (Quality Factor) of .206, for near-DVD quality. Enjoy!

Any bonus points that you can afford to grant me for my efforts would be greatly appreciated!
In as I'm usually downloading DVDs to convert, process, and perhaps color correct, to offer here, I struggle to maintain my UL/DL ratio; and your gift would certainly help me, in this regard. Thanks!
---------------------------------
Title: Libertine Boys; Twinks: Raw And Out Of Control
Studio: Latbocon Entertainment
Released: May, 2010
Written and Directed by: Roberto Escorda
Duration: 2 hours 16 min. (including DVD-BONUS slide show at end)
Starring: Maro Julio, Sebastian Vasco, Amauro Tellez, Agustin Robledo, Beto Cabarcas, Jonas Duarte, Joaquin Jacome, and Estefano Garcia.
---------------------------------
Description (from Latbocon): "Young and overwhelmed, dazzled by passion and irreverence, invaded by sexual liquid emotions, glued to their most hidden desires, they devour each other completely in scorching fire."
---------------------------------
Multimedia Analysis of:  [Latbocon] Libertine Boys (Duos).avi
General:
Complete name : [Latbocon] Libertine Boys (Duos).avi
Format : AVI
Format/Info : Audio Video Interleave
Format profile : OpenDML
File size : 2.16 GiB
Duration : 2h 16mn
Overall bit rate : 2 275 Kbps
Writing application : VirtualDubMod 1.5.10.2 (build 2542/release)
Writing library : VirtualDubMod build 2542/release

Video  ID : 0
Format : MPEG-4 Visual
Format profile : Advanced Simple@L5
Format settings, BVOP : Yes
Format settings, QPel : No
Format settings, GMC : No warppoints
Format settings, Matrix : Default (MPEG)
Muxing mode : Packed bitstream
Codec ID : XVID
Codec ID/Hint : XviD
Duration : 2h 16mn
Bit rate : 2 132 Kbps
Width : 720 pixels
Height : 480 pixels
Display aspect ratio : 4:3
Frame rate : 29.970 fps
Standard : NTSC
Resolution : 8 bits
Colorimetry : 4:2:0
Scan type : Progressive
Bits/(Pixel*Frame) : 0.206
Stream size : 2.03 GiB (94%)
Writing library : XviD 1.2.1 (UTC 2008-12-04)

Audio  ID : 1
Format : MPEG Audio
Format version : Version 1
Format profile : Layer 3
Mode : Joint stereo
Format_Settings_ModeExtension : MS Stereo
Codec ID : 55
Codec ID/Hint : MP3
Duration : 2h 16mn
Bit rate mode : Constant
Bit rate : 128 Kbps
Channel(s) : 2 channels
Sampling rate : 44.1 KHz
Stream size : 125 MiB (6%)
Alignment : Split accross interleaves
Interleave, duration : 33 ms (1.00 video frame)
Interleave, preload duration : 500 ms
Writing library : LAME3.98.2
Added2015-12-07 07:02:13
Size2.17 GB (2,325,324,947 bytes)
Views5184
Num files3 files
Pictures