♺ Amateur gay

CategoryHomemade
Download
You need to Login or Signup first.
DescriptionOriginal upload: 2014-03-19 |
  General
      Complete name : Amateur gay_avi
      Format : AVI
      Format/Info : Audio Video Interleave
      File size : 569 MiB
      Duration : 1h 36mn
      Overall bit rate : 821 Kbps
      Writing application : MEncoder Sherpya-SVN-r30075-4.2.5
      Writing library : MPlayer
  Video #0
      ID : 0
      Format : MPEG-4 Visual
      Format profile : Simple@L3
      Format settings, BVOP : No
      Format settings, QPel : No
      Format settings, GMC : No warppoints
      Format settings, Matrix : Default (H.263)
      Codec ID : XVID
      Codec ID/Hint : XviD
      Duration : 1h 36mn
      Bit rate : 690 Kbps
      Width : 528 pixels
      Height : 400 pixels
      Display aspect ratio : 4:3
      Frame rate : 25.000 fps
      Resolution : 24 bits
      Colorimetry : 4:2:0
      Scan type : Progressive
      Bits/(Pixel*Frame) : 0.131
      Stream size : 478 MiB (84%)
      Writing library : XviD 1.2.1 (UTC 2008-12-04)
  Audio #1
      ID : 1
      Format : MPEG Audio
      Format version : Version 1
      Format profile : Layer 3
      Codec ID : 55
      Codec ID/Hint : MP3
      Duration : 1h 36mn
      Bit rate mode : Variable
      Bit rate : 118 Kbps
      Channel(s) : 2 channels
      Sampling rate : 44.1 KHz
      Resolution : 16 bits
      Stream size : 82.0 MiB (14%)
      Alignment : Aligned on interleaves
      Interleave, duration : 26 ms (0.65 video frame)
      Interleave, preload duration : 539 ms
Added2016-07-13 09:16:09
Size568.96 MB (596,600,788 bytes)
Views319
Num files1 files
Pictures