SelfSuckers Eating Cum 1

You need to Login or Signup first.
DescriptionSelfsucking guys eating their own cum. Clips gathered from the net. Average/low quality.

Format: Flash Video
File size: 145 MiB
Overall bit rate: 251 Kbps
Tagging application: Yet Another Metadata Injector for FLV - Version 1.2

Format: Sorenson Spark
Codec ID: 2
Duration: 29mn 16s
Bit rate: 586 Kbps
Width: 480 pixels
Height: 360 pixels
Display aspect ratio: 4:3
Frame rate mode: Constant
Frame rate: 25.000 fps
Bit depth: 8 bits
Bits/(Pixel*Frame): 0.136
Stream size: 126 MiB (87%)

Format: MPEG Audio
Format version: Version 1
Format profile: Layer 3
Mode: Joint stereo
Mode extension: MS Stereo
Codec ID: 2
Codec ID/Hint: MP3
Duration: 1h 20mn
Bit rate mode: Constant
Bit rate: 32.0 Kbps
Channel(s): 2 channels
Sampling rate: 44.1 KHz
Compression mode: Lossy
Stream size: 18.5 MiB (13%)
Writing library: LAME3.98.2
Added2015-10-15 15:37:54
Size145.10 MB (152,145,224 bytes)
Num files1 files