Taken down by DMCA request

[Thick And Big] Vacation Shower Fuck [Jimmy Johnson and Lucas Weston] [1080p]

CategoryHunks
Download
You need to Login or Signup first.
Description[Thick And Big] Vacation Shower Fuck [Jimmy Johnson and Lucas Weston] [1080p]

Media Info.

Format                                  : Windows Media
File size                                : 1.20 GiB
Duration                                : 19mn 14s
Overall bit rate mode                    : Constant
Overall bit rate                        : 8 908 Kbps
Maximum Overall bit rate                : 9 199 Kbps
Encoded date                            : UTC 2013-11-08 02:16:01.628

Video
ID                                      : 2
Format                                  : VC-1
Format profile                          : MP@HL
Codec ID                                : WMV3
Codec ID/Info                            : Windows Media Video 9
Codec ID/Hint                            : WMV3
Description of the codec                : Windows Media Video 9 - Professional
Duration                                : 19mn 14s
Bit rate mode                            : Constant
Bit rate                                : 9 000 Kbps
Width                                    : 1 920 pixels
Height                                  : 1 080 pixels
Display aspect ratio                    : 16:9
Frame rate                              : 23.976 fps
Nominal frame rate                      : 29.970 fps
Color space                              : YUV
Chroma subsampling                      : 4:2:0
Bit depth                                : 8 bits
Scan type                                : Progressive
Compression mode                        : Lossy
Bits/(Pixel*Frame)                      : 0.181
Stream size                              : 1.21 GiB

Audio
ID                                      : 1
Format                                  : WMA
Format version                          : Version 2
Codec ID                                : 161
Codec ID/Info                            : Windows Media Audio
Description of the codec                : Windows Media Audio 9.2 - 128 kbps, 44 kHz, stereo 2-pass CBR
Duration                                : 19mn 14s
Bit rate mode                            : Constant
Bit rate                                : 128 Kbps
Channel(s)                              : 2 channels
Sampling rate                            : 44.1 KHz
Bit depth                                : 16 bits
Stream size                              : 17.6 MiB (1%)

Other
Type                                    : Time code
Format                                  : WM TC
Time code of first frame                : 00:00:00:00


Added2015-02-22 09:32:46
Size1.20 GB (1,285,331,527 bytes)
Views0
Num files1 files
Pictures