Taken down by DMCA request

[TimTales] Dito Deep fucks Tony Axel mp4

CategoryInterracial
Download
You need to Login or Signup first.
Descriptionreleased released 2011-10-17.

Qualityupgrade to irritatingly named upload  from 1/2 hour ago.

Format                                  : MPEG-4
Format profile                          : Base Media
Codec ID                                : isom (isom/iso2/avc1/mp41)
File size                                : 259 MiB
Duration                                : 19 min
Overall bit rate                        : 1 820 kb/s
Writing application                      : Lavf55.7.100

Video
ID                                      : 1
Format                                  : AVC
Format/Info                              : Advanced Video Codec
Format profile                          : High@L3.1
Format settings, CABAC                  : Yes
Format settings, ReFrames                : 4 frames
Codec ID                                : avc1
Codec ID/Info                            : Advanced Video Coding
Duration                                : 19 min
Bit rate                                : 1 675 kb/s
Width                                    : 960 pixels
Height                                  : 540 pixels
Display aspect ratio                    : 16:9
Frame rate mode                          : Constant
Frame rate                              : 25.000 FPS
Color space                              : YUV
Chroma subsampling                      : 4:2:0
Bit depth                                : 8 bits
Scan type                                : Progressive
Bits/(Pixel*Frame)                      : 0.129
Stream size                              : 238 MiB (92%)
Writing library                          : x264 core 133 r2334 a3ac64b
Encoding settings                        : cabac=1 / ref=1 / deblock=1:0:0 / analyse=0x3:0x113 / me=hex / subme=2 / psy=1 / psy_rd=1.00:0.00 / mixed_ref=0 / me_range=16 / chroma_me=1 / trellis=0 / 8x8dct=1 / cqm=0 / deadzone=21,11 / fast_pskip=1 / chroma_qp_offset=0 / threads=3 / lookahead_threads=1 / sliced_threads=0 / nr=0 / decimate=1 / interlaced=0 / bluray_compat=0 / constrained_intra=0 / bframes=3 / b_pyramid=2 / b_adapt=1 / b_bias=0 / direct=1 / weightb=1 / open_gop=0 / weightp=1 / keyint=48 / keyint_min=25 / scenecut=0 / intra_refresh=0 / rc_lookahead=10 / rc=crf / mbtree=1 / crf=20.0 / qcomp=0.60 / qpmin=0 / qpmax=69 / qpstep=4 / ip_ratio=1.40 / aq=1:1.00
Language                                : English

Audio
ID                                      : 2
Format                                  : AAC
Format/Info                              : Advanced Audio Codec
Format profile                          : LC
Codec ID                                : 40
Duration                                : 19 min
Bit rate mode                            : Constant
Bit rate                                : 140 kb/s
Channel(s)                              : 2 channels
Channel positions                        : Front: L R
Sampling rate                            : 48.0 kHz
Frame rate                              : 46.875 FPS (1024 spf)
Compression mode                        : Lossy
Stream size                              : 19.8 MiB (8%)
Language                                : English
Default                                  : Yes
Alternate group                          : 1
Added2016-11-07 22:15:38
Size258.53 MB (271,088,892 bytes)
Views191
Num files1 files
Pictures