Cocky Boys Studio

CategoryAnal
Download
You need to Login or Signup first.
DescriptionCocky Boys Studio

MediaInfo:

General
Count                                    : 322
Count of stream of this kind            : 1
Kind of stream                          : General
Kind of stream                          : General
Stream identifier                        : 0
Count of video streams                  : 1
Count of audio streams                  : 1
Video_Format_List                        : AVC
Video_Format_WithHint_List              : AVC
Codecs Video                            : AVC
Video_Language_List                      : English
Audio_Format_List                        : AAC
Audio_Format_WithHint_List              : AAC
Audio codecs                            : AAC LC
Audio_Language_List                      : English
Complete name                            : CockyBoys - Angel Cruz Fucks Max Carter.mp4
File name                                : CockyBoys - Angel Cruz Fucks Max Carter
File extension                          : mp4
Format                                  : MPEG-4
Format                                  : MPEG-4
Format/Extensions usually used          : mp4 m4v m4a m4b m4p 3gpp 3gp 3gpp2 3g2 k3g jpm jpx mqv ismv isma f4v
Commercial name                          : MPEG-4
Format profile                          : Base Media
Internet media type                      : video/mp4
Codec ID                                : isom
Codec ID                                : isom (isom/iso2/avc1/mp41)
Codec ID/Url                            : http://www.apple.com/quicktime/download/standalone.html
CodecID_Compatible                      : isom/iso2/avc1/mp41
Codec                                    : MPEG-4
Codec                                    : MPEG-4
Codec/Extensions usually used            : mp4 m4v m4a m4b m4p 3gpp 3gp 3gpp2 3g2 k3g jpm jpx mqv ismv isma f4v
File size                                : 571356289
File size                                : 545 MiB
File size                                : 545 MiB
File size                                : 545 MiB
File size                                : 545 MiB
File size                                : 544.9 MiB
Duration                                : 1474067
Duration                                : 24mn 34s
Duration                                : 24mn 34s 67ms
Duration                                : 24mn 34s
Duration                                : 00:24:34.067
Duration                                : 00:24:34:02
Duration                                : 00:24:34.067 (00:24:34:02)
Overall bit rate mode                    : VBR
Overall bit rate mode                    : Variable
Overall bit rate                        : 3100843
Overall bit rate                        : 3 101 Kbps
Frame rate                              : 30.000
Frame rate                              : 30.000 fps
Frame count                              : 44222
Stream size                              : 1550718
Stream size                              : 1.48 MiB (0%)
Stream size                              : 1 MiB
Stream size                              : 1.5 MiB
Stream size                              : 1.48 MiB
Stream size                              : 1.479 MiB
Stream size                              : 1.48 MiB (0%)
Proportion of this stream                : 0.00271
HeaderSize                              : 1550710
DataSize                                : 569805579
FooterSize                              : 0
IsStreamable                            : Yes
Encoded date                            : UTC 1904-01-01 00:00:00
Tagged date                              : UTC 1904-01-01 00:00:00
File last modification date              : UTC 2016-07-30 14:23:44
File last modification date (local)      : 2016-07-30 16:23:44
Writing application                      : Lavf55.19.104
Writing application                      : Lavf55.19.104

Video
Count                                    : 332
Count of stream of this kind            : 1
Kind of stream                          : Video
Kind of stream                          : Video
Stream identifier                        : 0
StreamOrder                              : 0
ID                                      : 1
ID                                      : 1
Format                                  : AVC
Format/Info                              : Advanced Video Codec
Format/Url                              : http://developers.videolan.org/x264.html
Commercial name                          : AVC
Format profile                          : High@L3.1
Format settings                          : CABAC / 4 Ref Frames
Format settings, CABAC                  : Yes
Format settings, CABAC                  : Yes
Format settings, ReFrames                : 4
Format settings, ReFrames                : 4 frames
Internet media type                      : video/H264
Codec ID                                : avc1
Codec ID/Info                            : Advanced Video Coding
Codec ID/Url                            : http://www.apple.com/quicktime/download/standalone.html
Codec                                    : AVC
Codec                                    : AVC
Codec/Family                            : AVC
Codec/Info                              : Advanced Video Codec
Codec/Url                                : http://developers.videolan.org/x264.html
Codec/CC                                : avc1
Codec profile                            : High@L3.1
Codec settings                          : CABAC / 4 Ref Frames
Codec settings, CABAC                    : Yes
Codec_Settings_RefFrames                : 4
Duration                                : 1474067
Duration                                : 24mn 34s
Duration                                : 24mn 34s 67ms
Duration                                : 24mn 34s
Duration                                : 00:24:34.067
Duration                                : 00:24:34:02
Duration                                : 00:24:34.067 (00:24:34:02)
Bit rate                                : 3000000
Bit rate                                : 3 000 Kbps
Width                                    : 1280
Width                                    : 1 280 pixels
Height                                  : 720
Height                                  : 720 pixels
Sampled_Width                            : 1280
Sampled_Height                          : 720
Pixel aspect ratio                      : 1.000
Display aspect ratio                    : 1.778
Display aspect ratio                    : 16:9
Rotation                                : 0.000
Frame rate mode                          : CFR
Frame rate mode                          : Constant
FrameRate_Mode_Original                  : VFR
Frame rate                              : 30.000
Frame rate                              : 30.000 fps
Frame count                              : 44222
Resolution                              : 8
Resolution                              : 8 bits
Colorimetry                              : 4:2:0
Color space                              : YUV
Chroma subsampling                      : 4:2:0
Bit depth                                : 8
Bit depth                                : 8 bits
Scan type                                : Progressive
Scan type                                : Progressive
Interlacement                            : PPF
Interlacement                            : Progressive
Bits/(Pixel*Frame)                      : 0.109
Stream size                              : 546125200
Stream size                              : 521 MiB (96%)
Stream size                              : 521 MiB
Stream size                              : 521 MiB
Stream size                              : 521 MiB
Stream size                              : 520.8 MiB
Stream size                              : 521 MiB (96%)
Proportion of this stream                : 0.95584
Writing library                          : x264 - core 142
Writing library                          : x264 core 142
Encoded_Library_Name                    : x264
Encoded_Library_Version                  : core 142
Encoding settings                        : cabac=1 / ref=3 / deblock=1:0:0 / analyse=0x3:0x113 / me=hex / subme=7 / psy=1 / psy_rd=1.00:0.00 / mixed_ref=1 / me_range=16 / chroma_me=1 / trellis=1 / 8x8dct=1 / cqm=0 / deadzone=21,11 / fast_pskip=1 / chroma_qp_offset=-2 / threads=3 / lookahead_threads=1 / sliced_threads=0 / nr=0 / decimate=1 / interlaced=0 / bluray_compat=0 / constrained_intra=0 / bframes=3 / b_pyramid=2 / b_adapt=1 / b_bias=0 / direct=1 / weightb=1 / open_gop=0 / weightp=2 / keyint=250 / keyint_min=25 / scenecut=40 / intra_refresh=0 / rc_lookahead=40 / rc=cbr / mbtree=1 / bitrate=3000 / ratetol=1.0 / qcomp=0.60 / qpmin=0 / qpmax=69 / qpstep=4 / vbv_maxrate=3000 / vbv_bufsize=5000 / nal_hrd=none / filler=0 / ip_ratio=1.40 / aq=1:1.00
Language                                : en
Language                                : English
Language                                : English
Language                                : en
Language                                : eng
Language                                : en
Encoded date                            : UTC 1904-01-01 00:00:00
Tagged date                              : UTC 1904-01-01 00:00:00

Audio
Count                                    : 272
Count of stream of this kind            : 1
Kind of stream                          : Audio
Kind of stream                          : Audio
Stream identifier                        : 0
StreamOrder                              : 1
ID                                      : 2
ID                                      : 2
Format                                  : AAC
Format/Info                              : Advanced Audio Codec
Commercial name                          : AAC
Format profile                          : LC
Format settings, SBR                    : No (Explicit)
Format settings, SBR                    : No (Explicit)
Codec ID                                : 40
Codec                                    : AAC LC
Codec                                    : AAC LC
Codec/Family                            : AAC
Codec/CC                                : 40
Duration                                : 1474064
Duration                                : 24mn 34s
Duration                                : 24mn 34s 64ms
Duration                                : 24mn 34s
Duration                                : 00:24:34.064
Duration                                : 00:24:36:15
Duration                                : 00:24:34.064 (00:24:36:15)
Duration_LastFrame                      : -8
Duration_LastFrame                      : -8ms
Duration_LastFrame                      : -8ms
Duration_LastFrame                      : -8ms
Duration_LastFrame                      : -00:00:00.008
Bit rate mode                            : VBR
Bit rate mode                            : Variable
Bit rate                                : 128517
Bit rate                                : 129 Kbps
Maximum bit rate                        : 3000000
Maximum bit rate                        : 3 000 Kbps
Channel(s)                              : 2
Channel(s)                              : 2 channels
Channel positions                        : Front: L R
Channel positions                        : 2/0/0
ChannelLayout                            : L R
Samples per frame                        : 1024
Sampling rate                            : 44100
Sampling rate                            : 44.1 KHz
Samples count                            : 65006224
Frame rate                              : 43.066
Frame rate                              : 43.066 fps (1024 spf)
Frame count                              : 63483
Compression mode                        : Lossy
Compression mode                        : Lossy
Stream size                              : 23680371
Stream size                              : 22.6 MiB (4%)
Stream size                              : 23 MiB
Stream size                              : 23 MiB
Stream size                              : 22.6 MiB
Stream size                              : 22.58 MiB
Stream size                              : 22.6 MiB (4%)
Proportion of this stream                : 0.04145
Language                                : en
Language                                : English
Language                                : English
Language                                : en
Language                                : eng
Language                                : en
Default                                  : Yes
Default                                  : Yes
Alternate group                          : 1
Alternate group                          : 1
Encoded date                            : UTC 1904-01-01 00:00:00
Tagged date                              : UTC 1904-01-01 00:00:00

Files:

./CockyBoys - Chris Harder and Felix Warner Flip-fuck!.mp4
./CockyBoys - Arnaud Chagall & David Corey.mp4
./CockyBoys - Gabriel Clark Fucks Marco Gagnon.mp4
./CockyBoys - Jake Bass & Justin Matthews Flip-Fuck.mp4
./CockyBoys - Rafael Alencar Plows JD Phoenix.mp4
./CockyBoys - Gabriel Clark & Jaxon Radoc.mp4
./CockyBoys - So You Wanna Be a Cockyboy - Tayte Hanson & Levi Karter.mp4
./CockyBoys - Pierre Fitch vs Jake Bass - Sons of Montreal.mp4
./CockyBoys - Jack Rayder and Frankie V Flip-Fuck.mp4
./CockyBoys - Dillon Rossi & Jasper Robinson Flip-Fuck!.mp4
./CockyBoys - Mickelo Evans & Benni Rousseau.mp4
./CockyBoys - Angel Cruz Fucks Max Carter.mp4
./CockyBoys - So You Wanna Be a CockyBoy - Jaxon Radoc & Max Carter.mp4
./CockyBoys - Colby Keller Fucks Seth Santoro.mp4
./CockyBoys - Tayte Hanson fucks Jaxon Radoc.mp4
./CockyBoys - Max Carter & Levi Karter Flip-Flop - No Words.mp4
./CockyBoys - Meeting Jasper Robinson.mp4
./CockyBoys - Brandon Jones & Marco Magnon.mp4
./CockyBoys - Gabriel Clark Fucks Seth Santoro.mp4
./Cockyboys - Levi Michaels & Darius Ferdynand Flip-Fuck.mp4
./CockyBoys - Dillon Rossi fucks Jake Bass.mp4
./ContactSheets
./ContactSheets/CockyBoys - Marco Gagnon Fucks Seth Santoro.jpg
./ContactSheets/CockyBoys - Rafael Alencar Plows JD Phoenix.jpg
./ContactSheets/CockyBoys - Dillon Rossi & Jasper Robinson Flip-Fuck!.jpg
./ContactSheets/Cockyboys - Sonny Stewart & Marco Gagnon.jpg
./ContactSheets/CockyBoys - Levi Karter & Asher Hawk Flip-Fuck.jpg
./ContactSheets/CockyBoys - Ricky Roman Fucks Levi Michaels.jpg
./ContactSheets/CockyBoys - Damien Gunn & Lukas Grande.jpg
./ContactSheets/Cockyboys - Gabriel Clark fucks Darius Ferdynand.jpg
./ContactSheets/CockyBoys - Gabriel Clark hammers Levi Michaels.jpg
./ContactSheets/CockyBoys - Arnaud Chagall & Tobias.jpg
./ContactSheets/CockyBoys - Sonny Stewart & Kevin Carson - #Delicious.jpg
./ContactSheets/CockyBoys - Justin Matthews Hammers Dillon Rossi.jpg
./ContactSheets/CockyBoys - Gabriel Clark Fucks David Corey.jpg
./ContactSheets/CockyBoys - Gabriel Clark Fucks Lukas Grande.jpg
./ContactSheets/CockyBoys - Levi Michaels & Max Carter Flip-Fuck.jpg
./ContactSheets/CockyBoys - Ty Roderick & Jake Bass - Men, Boys & Toys.jpg
./ContactSheets/CockyBoys - Gabriel Clark & Frankie V.jpg
./ContactSheets/CockyBoys - Jack Rayder & Lukas Grande Flip-Fuck.jpg
./ContactSheets/CockyBoys - Dalton Briggs Fucks Dillon Rossi.jpg
./ContactSheets/CockyBoys - Gabriel Clark Hammers Asher Hawk.jpg
./ContactSheets/CockyBoys - Tayte Hanson Fucks Dillon Rossi.jpg
./ContactSheets/CockyBoys - Tobias James Dominates Samuel Stone.jpg
./ContactSheets/CockyBoys - Jake Bass Pounds Max Carter.jpg
./ContactSheets/CockyBoys - Men, Boys & Toys.jpg
./ContactSheets/CockyBoys - Arnaud Chagall & David Corey.jpg
./ContactSheets/CockyBoys - Ty Roderick Hammers Max Ryder.jpg
./ContactSheets/CockyBoys - Colby Keller Fucks Seth Santoro.jpg
./ContactSheets/CockyBoys - Chris Harder & Kevin Carson Flip-Fuck.jpg
./ContactSheets/CockyBoys - Connor Maguire fucks Chris Harder.jpg
./ContactSheets/Cockyboys - Colby Keller hammers Levi Michaels.jpg
./ContactSheets/CockyBoys - Gabriel Clark Fucks Kevin Carson.jpg
./ContactSheets/CockyBoys - Colby Keller Plows Dillon Rossi.jpg
./ContactSheets/CockyBoys - Jarred Fucks Tory.jpg
./ContactSheets/CockyBoys - Pierre Fitch vs Jake Bass - Sons of Montreal.jpg
./ContactSheets/CockyBoys - Sonny Stewart Plows Ben Rose.jpg
./ContactSheets/CockyBoys - Pierre Fitch Pounds Levi Karter!.jpg
./ContactSheets/CockyBoys - Dillon Rossi fucks Jake Bass.jpg
./ContactSheets/CockyBoys - Meeting Liam - Liam Riley, Levi Karter, Ricky Roman and Tayte Hanson.jpg
./ContactSheets/CockyBoys - Gabriel Clark & Andrew Strong.jpg
./ContactSheets/CockyBoys - Gabriel Clark Fucks Levi Karter.jpg
./ContactSheets/CockyBoys - Pierre Fitch and Lukas Grande Flip-Fuck.jpg
./ContactSheets/CockyBoys - Kiss, Hug, Fuck, Love - Colby Keller, Duncan Black &  Justin Matthews.jpg
./ContactSheets/CockyBoys - Frankie V Fucks Raphael Marino.jpg
./ContactSheets/CockyBoys - Caleb King Fucks Brandon Jones.jpg
./ContactSheets/CockyBoys - Pierre Fitch & Angel Cruz Flip-Fuck.jpg
./ContactSheets/CockyBoys - Joey LaFontaine Drills David Corey.jpg
./ContactSheets/CockyBoys - Tayte Hanson & Justin Matthews Flip-Fuck.jpg
./ContactSheets/CockyBoys - Pierre Fitch and Darius Ferdynand Flip Flop - #OMG.jpg
./ContactSheets/CockyBoys - Gabriel Clark Fucks Pierre Fitch.jpg
./ContactSheets/CockyBoys - Max Carter & Levi Karter Flip-Flop - No Words.jpg
./ContactSheets/CockyBoys - Meeting Jasper Robinson.jpg
./ContactSheets/CockyBoys - Brandon Jones & Willam Boyd.jpg
./ContactSheets/CockyBoys - Jake Bass & Justin Matthews Flip-Fuck.jpg
./ContactSheets/CockyBoys - Duncan Black & Levi Karter Flip-Fuck.jpg
./ContactSheets/CockyBoys - Penetralia - Bravo Delta.jpg
./ContactSheets/CockyBoys - Talk to Me - Colby Keller, Jett Black & Kevin Warhol.jpg
./ContactSheets/CockyBoys - Angel Cruz Fucks Max Carter.jpg
./ContactSheets/CockyBoys - So You Wanna Be a Cockyboy - Tayte Hanson & Levi Karter.jpg
./ContactSheets/CockyBoys - Tayte Hanson & Darius Ferdynand Flip-Fuck!.jpg
./ContactSheets/CockyBoys - Jack Rayder and Frankie V Flip-Fuck.jpg
./ContactSheets/CockyBoys - Duncan Black & Cameron.jpg
./ContactSheets/CockyBoys - Tayte Hanson fucks Jaxon Radoc.jpg
./ContactSheets/CockyBoys - Gabriel Clark Fucks Seth Santoro.jpg
./ContactSheets/CockyBoys - Jo Diamond Fucks Ricky Roman.jpg
./ContactSheets/CockyBoys - Pierre Fitch & Asher Hawk.jpg
./ContactSheets/CockyBoys - So You Wanna Be a CockyBoy - Jaxon Radoc & Max Carter.jpg
./ContactSheets/CockyBoys - Gabriel Clark Fucks Marco Gagnon.jpg
./ContactSheets/CockyBoys - Connor Maguire drills Levi Michaels.jpg
./ContactSheets/CockyBoys - Joey Lafontaine & Jasper Robinson.jpg
./ContactSheets/CockyBoys - Gabriel Clark Fucks Willam.jpg
./ContactSheets/Cockyboys - Levi Michaels & Darius Ferdynand Flip-Fuck.jpg
./ContactSheets/CockyBoys - Brandon Jones & Marco Magnon.jpg
./ContactSheets/CockyBoys - Levi Karter, Jack Rayder & Lukas Grande, Fuck!.jpg
./ContactSheets/CockyBoys - Levi Karter & Jacob Ladder Flip-Fuck.jpg
./ContactSheets/Cockyboys - Connor Maguire & Jake Bass flip-fuck.jpg
./ContactSheets/CockyBoys - Connor Maguire fucks Ricky Roman.jpg
./ContactSheets/CockyBoys - Dillon Rossi & Max Carter.jpg
./ContactSheets/CockyBoys - Colby Keller & Max Ryder - Men, Boys & Toys.jpg
./ContactSheets/CockyBoys - Colby Keller Drills Pierre Fitch.jpg
./ContactSheets/CockyBoys - Leo Sweetwood & Raphael Marino.jpg
./ContactSheets/CockyBoys - Jasper Robinson & Asher Hawk.jpg
./ContactSheets/CockyBoys - Jake Bass & Tony Milan.jpg
./ContactSheets/CockyBoys - Tommy Defendi Drills Levi Michaels.jpg
./ContactSheets/CockyBoys - Gabriel Clark & Jaxon Radoc.jpg
./ContactSheets/CockyBoys - Colby Keller Hammers Ricky Roman.jpg
./ContactSheets/CockyBoys - Johny Castle Jerks Off.jpg
./ContactSheets/CockyBoys - Mickelo Evans & Benni Rousseau.jpg
./ContactSheets/CockyBoys - Gabriel Clark Fucks Damien Gunn.jpg
./ContactSheets/CockyBoys - Gabriel Clark Fucks Jack Rayder.jpg
./ContactSheets/CockyBoys - Jaxon Radoc & David Corey.jpg
./ContactSheets/CockyBoys - Sonny Stewart Fucks Caleb King.jpg
./ContactSheets/CockyBoys - Jake Bass and Lukas Grande Flip-Fuck.jpg
./ContactSheets/Cockyboys - Tommy Defendi, Duncan Black & Darius Ferdynand.jpg
./ContactSheets/CockyBoys - Pierre Fitch & Duncan Black.jpg
./ContactSheets/CockyBoys - Chris Harder and Felix Warner Flip-fuck!.jpg
./ContactSheets/CockyBoys - Cody Allen & Cole Brooks.jpg
./ContactSheets/Cockyboys - Troy.jpg
./ContactSheets/CockyBoys - Brandon Jones & Samuel Stone Flip-Fuck.jpg
./CockyBoys - Tayte Hanson & Justin Matthews Flip-Fuck.mp4
./CockyBoys - Jaxon Radoc & David Corey.mp4
./CockyBoys - Dalton Briggs Fucks Dillon Rossi.mp4
./CockyBoys - Connor Maguire fucks Ricky Roman.mp4
./Cockyboys - Tommy Defendi, Duncan Black & Darius Ferdynand.mp4
./CockyBoys - Johny Castle Jerks Off.mp4
./CockyBoys - Pierre Fitch & Angel Cruz Flip-Fuck.mp4
./CockyBoys - Jake Bass Pounds Max Carter.mp4
./CockyBoys - Joey LaFontaine Drills David Corey.mp4
./CockyBoys - Gabriel Clark & Frankie V.mp4
./CockyBoys - Men, Boys & Toys.mp4
./CockyBoys - Levi Karter, Jack Rayder & Lukas Grande, Fuck!.mp4
./CockyBoys - Gabriel Clark Fucks Damien Gunn.mp4
./CockyBoys - Frankie V Fucks Raphael Marino.mp4
./CockyBoys - Colby Keller Drills Pierre Fitch.mp4
./CockyBoys - Pierre Fitch & Asher Hawk.mp4
./CockyBoys - Gabriel Clark Fucks Willam.mp4
./CockyBoys - Meeting Liam - Liam Riley, Levi Karter, Ricky Roman and Tayte Hanson.mp4
./CockyBoys - Joey Lafontaine & Jasper Robinson.mp4
./CockyBoys - Jarred Fucks Tory.mp4
./CockyBoys - Pierre Fitch & Duncan Black.mp4
./CockyBoys - Brandon Jones & Samuel Stone Flip-Fuck.mp4
./CockyBoys - Jake Bass and Lukas Grande Flip-Fuck.mp4
./Cockyboys - Connor Maguire & Jake Bass flip-fuck.mp4
./CockyBoys - Sonny Stewart Plows Ben Rose.mp4
./CockyBoys - Gabriel Clark Fucks Levi Karter.mp4
./CockyBoys - Chris Harder & Kevin Carson Flip-Fuck.mp4
./CockyBoys - Jake Bass & Tony Milan.mp4
./CockyBoys - Pierre Fitch and Darius Ferdynand Flip Flop - #OMG.mp4
./CockyBoys - Ty Roderick & Jake Bass - Men, Boys & Toys.mp4
./Cockyboys - Sonny Stewart & Marco Gagnon.mp4
./CockyBoys - Connor Maguire fucks Chris Harder.mp4
./CockyBoys - Talk to Me - Colby Keller, Jett Black & Kevin Warhol.mp4
./CockyBoys - Gabriel Clark Fucks Pierre Fitch.mp4
./CockyBoys - Ricky Roman Fucks Levi Michaels.mp4
./CockyBoys - Sonny Stewart Fucks Caleb King.mp4
./CockyBoys - Levi Karter & Asher Hawk Flip-Fuck.mp4
./CockyBoys - Pierre Fitch and Lukas Grande Flip-Fuck.mp4
./CockyBoys - Gabriel Clark Fucks Lukas Grande.mp4
./CockyBoys - Gabriel Clark & Andrew Strong.mp4
./CockyBoys - Levi Michaels & Max Carter Flip-Fuck.mp4
./CockyBoys - Sonny Stewart & Kevin Carson - #Delicious.mp4
./CockyBoys - Leo Sweetwood & Raphael Marino.mp4
./CockyBoys - Jasper Robinson & Asher Hawk.mp4
./CockyBoys - Connor Maguire drills Levi Michaels.mp4
./CockyBoys - Marco Gagnon Fucks Seth Santoro.mp4
./CockyBoys - Tobias James Dominates Samuel Stone.mp4
./CockyBoys - Duncan Black & Levi Karter Flip-Fuck.mp4
./CockyBoys - Brandon Jones & Willam Boyd.mp4
./CockyBoys - Damien Gunn & Lukas Grande.mp4
./CockyBoys - Jo Diamond Fucks Ricky Roman.mp4
./CockyBoys - Levi Karter & Jacob Ladder Flip-Fuck.mp4
./CockyBoys - Tayte Hanson Fucks Dillon Rossi.mp4
./CockyBoys - Duncan Black & Cameron.mp4
./Cockyboys - Troy.mp4
./CockyBoys - Cody Allen & Cole Brooks.mp4
./CockyBoys - Justin Matthews Hammers Dillon Rossi.mp4
./CockyBoys - Gabriel Clark Fucks Jack Rayder.mp4
./CockyBoys - Dillon Rossi & Max Carter.mp4
./CockyBoys - Ty Roderick Hammers Max Ryder.mp4
./Cockyboys - Colby Keller hammers Levi Michaels.mp4
./CockyBoys - Arnaud Chagall & Tobias.mp4
./CockyBoys - Colby Keller Plows Dillon Rossi.mp4
./CockyBoys - Colby Keller & Max Ryder - Men, Boys & Toys.mp4
./CockyBoys - Gabriel Clark hammers Levi Michaels.mp4
./CockyBoys - Pierre Fitch Pounds Levi Karter!.mp4
./CockyBoys - Penetralia - Bravo Delta.mp4
./CockyBoys - Tommy Defendi Drills Levi Michaels.mp4
./CockyBoys - Jack Rayder & Lukas Grande Flip-Fuck.mp4
./CockyBoys - Kiss, Hug, Fuck, Love - Colby Keller, Duncan Black &  Justin Matthews.mp4
./CockyBoys - Tayte Hanson & Darius Ferdynand Flip-Fuck!.mp4
./Cockyboys - Gabriel Clark fucks Darius Ferdynand.mp4
./CockyBoys - Caleb King Fucks Brandon Jones.mp4
./CockyBoys - Colby Keller Hammers Ricky Roman.mp4
./CockyBoys - Gabriel Clark Fucks Kevin Carson.mp4
./CockyBoys - Gabriel Clark Hammers Asher Hawk.mp4
./CockyBoys - Gabriel Clark Fucks David Corey.mp4
Added2016-07-31 20:23:38
Size47.96 GB (51,497,110,786 bytes)
Views104
Num files196 files
Pictures