♺ MuscleHunks - Heat - Arkady Zadrovich & Uberto Ugo (mpg)

You need to Login or Signup first.
DescriptionOriginal upload: 2010-06-25 |
Original upload: 2008-11-26 |

Dynamite Studios first solo-action Dynamite Duo Team! Romanian tough guy bodybuilders, LiveMuscleShow.com's Arkady Zadrovich and Uberto Ugomeet in a dingy Bucharest city gym for a late night workout. When Arkady challenges Uberto to a test of strength, it quickly turns into a no-holds-barred, no-punches-pulled wrestling match! Watch as Arkady and Uberto match wits, moves, physiques, and strength, each trying to get the better of the other! And after all that wrestling, what better relaxation than a steamy hot shower, followed by a killer duo-scene side-by-side sauna room JO session! But that's not all.... Later, the two men show off again in two additional solo jo scenes, after which they once again team up for a long, duo mutual muscle-worship session you'll never forget! The result: an instant Dynamite Studios Classic!

ID                              : 224 (0xE0)
Format                          : MPEG Video
Format version                  : Version 1
Format settings, BVOP            : Yes
Format settings, Matrix          : Default
Duration                        : 1h 4mn
Bit rate mode                    : Constant
Bit rate                        : 1 111 Kbps
Nominal bit rate                : 1 150 Kbps
Width                            : 352 pixels
Height                          : 240 pixels
Display aspect ratio            : 4:3
Frame rate                      : 29.970 fps
Resolution                      : 8 bits
Scan type                        : Progressive
Bits/(Pixel*Frame)              : 0.439
Stream size                      : 511 MiB (80%)

ID                              : 192 (0xC0)
Format                          : MPEG Audio
Format version                  : Version 1
Format profile                  : Layer 2
Duration                        : 1h 4mn
Bit rate mode                    : Constant
Bit rate                        : 224 Kbps
Channel(s)                      : 2 channels
Sampling rate                    : 44.1 KHz
Stream size                      : 103 MiB (16%)

Added2016-09-06 03:14:11
Size639.86 MB (670,941,124 bytes)
Num files1 files