Taken down by DMCA request

⚣Bankers by Antonio Da Silva

CategoryVoyeur
Download
You need to Login or Signup first.
Description BANKERS by Antonio Da Silva

A hidden camera portrays sexual interactions between bankers in a public restroom during their lunch break. No words, just signs, few body sounds, it is a choreography around the urinal. The film was shot over a period of one year in London financial district. Around lunchtime — 12:30 to 2:30 P.M. is the peak time for a wank with a banker.

*No actors were used in the making of BANKERS

Year: 2012
Length: 12:00

Awards
Best short film, Berlin Porn Film Festival, Germany.
Best Portuguese short film, Queer Lisboa, Portugal.
__________________________

Format                                  : Flash Video
File size                                : 144 MiB
Duration                                : 4mn 53s
Overall bit rate                        : 4 118 Kbps
Tagging application                      : lumberjack
hasMetaData                              : Yes
audiocodecname                          : AAC LC
videocodecname                          : H264/AVC High@L4.0

Video
Format                                  : AVC
Format/Info                              : Advanced Video Codec
Format profile                          : High@L4.0
Format settings, CABAC                  : Yes
Format settings, ReFrames                : 4 frames
Codec ID                                : 7
Duration                                : 4mn 54s
Bit rate                                : 4 001 Kbps
Width                                    : 1 280 pixels
Height                                  : 720 pixels
Display aspect ratio                    : 16:9
Frame rate mode                          : Constant
Frame rate                              : 25.000 fps
Color space                              : YUV
Chroma subsampling                      : 4:2:0
Bit depth                                : 8 bits
Scan type                                : Progressive
Bits/(Pixel*Frame)                      : 0.174
Stream size                              : 140 MiB (97%)
Writing library                          : x264 core 120 r2146M bcd41db

Audio
Format                                  : AAC
Format/Info                              : Advanced Audio Codec
Format profile                          : LC
Codec ID                                : 10
Duration                                : 4mn 53s
Bit rate                                : 106 Kbps
Channel(s)                              : 2 channels
Channel positions                        : Front: L R
Sampling rate                            : 44.1 KHz
Compression mode                        : Lossy
Delay relative to video                  : 80ms
Stream size                              : 3.72 MiB (3%)
Added2014-07-12 00:48:05
Size161.94 MB (169,801,788 bytes)
Views0
Num files7 files
Pictures