Safados net - Tudo Duro - Bareback on the beach

CategoryBlack
Download
You need to Login or Signup first.
DescriptionTudo Duro
No meio das pedras, dois machos fodem como animais, com todo tesão acumulado
  Metadata:
    major_brand    : mp42
    minor_version  : 512
    compatible_brands: isomiso2avc1mp41
    creation_time  : 2016-08-04 14:32:08
    encoder        : HandBrake 0.10.5 2016021100
  Duration: 00:21:43.75, start: 0.000000, bitrate: 639 kb/s
    Stream #0:0(und): Video: h264 (High) (avc1 / 0x31637661), yuv420p(tv, smpte170m), 640x372 [SAR 1:1 DAR 160:93], 504 kb/s, 29.97 fps, 30.17 tbr, 90k tbn, 180k tbc (default)
    Metadata:
      creation_time  : 2016-08-04 14:32:08
      handler_name    : VideoHandler
    Stream #0:1(und): Audio: mp3 (mp4a / 0x6134706D), 44100 Hz, stereo, s16p, 127 kb/s (default)
    Metadata:
      creation_time  : 2016-08-04 14:32:08
      handler_name    : Stereo
Added2016-08-04 22:55:07
Size100.94 MB (105,847,167 bytes)
Views152
Num files21 files
Pictures