Jet Set Men - Parts and Service

CategoryHunks
Download
You need to Login or Signup first.
Description-Staring-
Brad Benton
Brett Larson
Chad Donovan
Cody Cash
Jack Ryan
Lee Carington
Rico Suave

-Synopsis-
Have you scheduled your tune up? Tools included! Watch some of the hottest mechanics HARD at work. Look at what type of service these grease monkey's provide. Lots of hard cocks and tight asses in this Jet Set production.

-Credits-
Director: Dylan Ryan
Studio: Jet Set Men
Country: US
Release Date: 2004
Running Time: 90 mins

-Technical Information-
Video
ID                                      : 0
Format                                  : MPEG-4 Visual
Format profile                          : Advanced Simple@L5
Format settings, BVOP                    : 2
Format settings, QPel                    : No
Format settings, GMC                    : No warppoints
Format settings, Matrix                  : Default (H.263)
Muxing mode                              : Packed bitstream
Codec ID                                : XVID
Codec ID/Hint                            : XviD
Duration                                : 1h 21mn
Bit rate                                : 1 055 Kbps
Width                                    : 640 pixels
Height                                  : 480 pixels
Display aspect ratio                    : 4:3
Frame rate                              : 29.970 fps
Color space                              : YUV
Chroma subsampling                      : 4:2:0
Bit depth                                : 8 bits
Scan type                                : Interlaced
Scan order                              : Bottom Field First
Compression mode                        : Lossy
Bits/(Pixel*Frame)                      : 0.115
Stream size                              : 618 MiB (88%)
Writing library                          : XviD 1.1.2 (UTC 2006-11-01)

Audio
ID                                      : 1
Format                                  : MPEG Audio
Format version                          : Version 1
Format profile                          : Layer 3
Codec ID                                : 55
Codec ID/Hint                            : MP3
Duration                                : 1h 21mn
Bit rate mode                            : Constant
Bit rate                                : 128 Kbps
Channel(s)                              : 2 channels
Sampling rate                            : 48.0 KHz
Compression mode                        : Lossy
Stream size                              : 75.0 MiB (11%)
Alignment                                : Aligned on interleaves
Interleave, duration                    : 33 ms (1.00 video frame)
Interleave, preload duration            : 504 ms
Added2015-05-23 22:55:12
Size699.82 MB (733,818,880 bytes)
Views0
Num files1 files
Pictures