Taken down by DMCA request

[Thick And Big] Fuck and Don't Tell [Owen Michaels and Joey Moriarty] [1080p]

CategoryHunks
Download
You need to Login or Signup first.
Description[Thick And Big] Fuck and Don't Tell [Owen Michaels and Joey Moriarty] [1080p]

Media Info.

Format                                  : MPEG-4
Format profile                          : Base Media
Codec ID                                : isom
File size                                : 1.60 GiB
Duration                                : 20mn 40s
Overall bit rate mode                    : Variable
Overall bit rate                        : 11.1 Mbps
Writing application                      : Lavf55.12.100

Video
ID                                      : 1
Format                                  : AVC
Format/Info                              : Advanced Video Codec
Format profile                          : Baseline@L3.1
Format settings, CABAC                  : No
Format settings, ReFrames                : 2 frames
Codec ID                                : avc1
Codec ID/Info                            : Advanced Video Coding
Duration                                : 20mn 40s
Bit rate                                : 11.0 Mbps
Width                                    : 1 920 pixels
Height                                  : 1 080 pixels
Display aspect ratio                    : 16:9
Frame rate mode                          : Constant
Frame rate                              : 59.940 fps
Color space                              : YUV
Chroma subsampling                      : 4:2:0
Bit depth                                : 8 bits
Scan type                                : Progressive
Bits/(Pixel*Frame)                      : 0.088
Stream size                              : 1.59 GiB (99%)
Writing library                          : x264 core 138 r2358 9e941d1
Encoding settings                        : cabac=0 / ref=2 / deblock=1:0:0 / analyse=0x1:0x111 / me=hex / subme=6 / psy=1 / psy_rd=1.00:0.00 / mixed_ref=1 / me_range=16 / chroma_me=1 / trellis=1 / 8x8dct=0 / cqm=0 / deadzone=21,11 / fast_pskip=1 / chroma_qp_offset=-2 / threads=2 / lookahead_threads=1 / sliced_threads=0 / nr=0 / decimate=1 / interlaced=0 / bluray_compat=0 / constrained_intra=0 / bframes=0 / weightp=0 / keyint=250 / keyint_min=25 / scenecut=40 / intra_refresh=0 / rc_lookahead=30 / rc=crf / mbtree=1 / crf=18.0 / qcomp=0.60 / qpmin=0 / qpmax=69 / qpstep=4 / ip_ratio=1.40 / aq=1:1.00
Language                                : English

Audio
ID                                      : 2
Format                                  : AAC
Format/Info                              : Advanced Audio Codec
Format profile                          : LC
Codec ID                                : 40
Duration                                : 20mn 40s
Bit rate mode                            : Variable
Bit rate                                : 109 Kbps
Maximum bit rate                        : 128 Kbps
Channel(s)                              : 2 channels
Channel positions                        : Front: L R
Sampling rate                            : 48.0 KHz
Compression mode                        : Lossy
Stream size                              : 16.1 MiB (1%)
Language                                : English


Added2015-02-22 09:30:36
Size1.60 GB (1,720,664,901 bytes)
Views0
Num files1 files
Pictures